Browse Collections Artists Sources   Search Dates

Add Show    List Management    Help


Raq 02/01/08
World Cafe Live, Philadelphia, PA
Comments Add Comment    Source Collectors    Add to Collection    Add to Want List    History
Source # 92960 Other Sources
Entered by Steve Blanchard
Checksums ffp
Disc Counts 2 / 2
Media Size
Date Circulated
Date Added
07/11/2008
07/20/2008
Source Summary Soundfield ST-350 > Soundfield ST-350 Controller Box > Sound Devices 744T, Sound Devices 744T-> Firewire-> PC > CD Wave > FLAC Frontend 
Source Information - Download Text | Download Zip
PERFORMANCE INFORMATION
Band: RAQ
Date: February 1, 2008
Venue: World Cafe Live
City, State: Philadelphia, PA

SETLIST & TRACKING INFORMATION
01. Intro>
02. Quick & Painless
03. Late Night->
04. Bootch Magoo
05. Mollie's Cule
06. Stuck In A Hole->
07. Late Night
08. Reason
09. Moxey
10. Silhouette
11. Technovailable
12. Crazy Tonie
13. Sweet Cream Butter
14. Said and Done
15. Cheap Sunglasses

RECORDING INFOMATION
Location: LOC by SBD
Microphone: Soundfield ST-350
Microphone Configuration: XY
Preamp: Soundfield ST-350 Controller Box
A/D Conversion and Recording Deck: Sound Devices 744T
Recording Format: 4 Channel Poly Wav File in B Format, 24 Bits @ 48 kHz Sample Rate

CONVERSION INFORMATION
Transfer: Sound Devices 744T-> Firewire-> PC
Post-Production Processing Steps:
[1] Polar Pattern, Width, and B Format to Stereo Decoding with Nuendo 3 using the Soundfield Surround Zone Plugin [2] Song Tracking with CD Wave
[3] Resample, Dither, Levels Normalized with Wavelab 5
[4] File Compression with FLAC Frontend (Level 6)
[5] FLAC File Tagging with Foobar 2000 Live Show Tagger Plugin
[6] Album Art tagging with Media Monkey 3.02.
Final Microphone Configuration: Midway between Hypercardioid and Figure 8 XY @ 90 Degrees
Final File Format: 2 Channel Stereo FLAC File, 16 Bits @ 44.1 kHz Sample Rate

FLAC FINGERPRINT INFORMATION
raq2008-02-01t15.flac:a80186e2e2eeff0d290d6ca7d14fbcae
raq2008-02-01t01.flac:dc2ec1970e91077818787c49f3516c8b
raq2008-02-01t02.flac:2c86f2bffea4228a34db6f203033c8f0
raq2008-02-01t03.flac:71e4a195b4eca47f2bc35ce9b0a58475
raq2008-02-01t04.flac:fd42035fc6ded0a3caa08cb1c468ff4b
raq2008-02-01t05.flac:80f79b41a4f8bf27102cd2b3b2c9e448
raq2008-02-01t06.flac:9591bce505e27e91642672a4b54a16ba
raq2008-02-01t07.flac:cd6e7565e31c9ee4e188564affa9e635
raq2008-02-01t08.flac:aeb6267cadeeffe62cc4851c2c627ae4
raq2008-02-01t09.flac:b0f91f9d3b0ee0877fdda0c457b3e338
raq2008-02-01t10.flac:70b89b5e6106b95e885e5af40f1f0218
raq2008-02-01t11.flac:b6ee31e49b41158fab8d633bc98e6357
raq2008-02-01t12.flac:bfc231a225580a64de6ebe10641771fd
raq2008-02-01t13.flac:099f9b4f0ff4b595a49b9418e1d51356
raq2008-02-01t14.flac:5dcdd5c6cba4fd7d3b819dd888155b85


SECTOR BOUNDARY CONFIRMATION
  length     expanded size   cdr  WAVE problems filename
     0:23.70        4221884    ---   --   ---xx   raq2008-02-01t01.flac
     8:55.71       94541036    ---   --   ---xx   raq2008-02-01t02.flac
     6:37.10       70054364    ---   --   ---xx   raq2008-02-01t03.flac
     9:55.45      105063884    ---   --   ---xx   raq2008-02-01t04.flac
     5:07.45       54260684    ---   --   ---xx   raq2008-02-01t05.flac
    10:38.73      112714940    ---   --   ---xx   raq2008-02-01t06.flac
     6:28.40       68537324    ---   --   ---xx   raq2008-02-01t07.flac
     9:26.62       99988268    ---   --   ---xx   raq2008-02-01t08.flac
     7:05.00       74970044    ---   --   ---xx   raq2008-02-01t09.flac
     6:08.02       64919948    ---   --   ---xx   raq2008-02-01t10.flac
     6:10.05       65279804    ---   --   ---xx   raq2008-02-01t11.flac
     9:26.35       99924764    ---   --   ---xx   raq2008-02-01t12.flac
     9:08.63       96815420    ---   --   ---xx   raq2008-02-01t13.flac
     8:55.48       94486940    ---   --   ---xx   raq2008-02-01t14.flac
     9:29.15      100406924    ---   --   ---xx   raq2008-02-01t15.flac
   113:57.59     1206186228 B                     (totals for 15 files, 0.6166 overall compression ratio)



Show Checksums
ffp
raq2008-02-01t15.flac:a80186e2e2eeff0d290d6ca7d14fbcae
raq2008-02-01t01.flac:dc2ec1970e91077818787c49f3516c8b
raq2008-02-01t02.flac:2c86f2bffea4228a34db6f203033c8f0
raq2008-02-01t03.flac:71e4a195b4eca47f2bc35ce9b0a58475
raq2008-02-01t04.flac:fd42035fc6ded0a3caa08cb1c468ff4b
raq2008-02-01t05.flac:80f79b41a4f8bf27102cd2b3b2c9e448
raq2008-02-01t06.flac:9591bce505e27e91642672a4b54a16ba
raq2008-02-01t07.flac:cd6e7565e31c9ee4e188564affa9e635
raq2008-02-01t08.flac:aeb6267cadeeffe62cc4851c2c627ae4
raq2008-02-01t09.flac:b0f91f9d3b0ee0877fdda0c457b3e338
raq2008-02-01t10.flac:70b89b5e6106b95e885e5af40f1f0218
raq2008-02-01t11.flac:b6ee31e49b41158fab8d633bc98e6357
raq2008-02-01t12.flac:bfc231a225580a64de6ebe10641771fd
raq2008-02-01t13.flac:099f9b4f0ff4b595a49b9418e1d51356
raq2008-02-01t14.flac:5dcdd5c6cba4fd7d3b819dd888155b85

Comments
Add Comment
Date User Comment