Browse Collections Artists Sources   Search Dates

Add Show    List Management    Help


Phil Lesh & Friends 07/29/01
Star Pavilion, Hershey, PA
Comments Add Comment    Source Collectors    Add to Collection    Add to Want List    History
Source # 93035 Other Sources
Entered by Matt Vernon
Checksums ffp , flac-md5
Disc Counts 2 / 3
Media Size
Date Circulated
Date Added
07/22/2008
07/22/2008
Source Summary source: aud > Sony ECM-MS957's > Sony WM-D6 > mac transfer: mac > Nakamichi BX-125E > Creative Extigy > Wavelab > wav > flac taped by John Bleich conversion by SirMick 
  Archive
Source Information - Download Text | Download Zip
Phil Lesh & Friends
Star Pavilion,
Hershey, PA
07/29/2001

source: aud > Sony ECM-MS957's > Sony WM-D6 > mac
transfer: mac > Nakamichi BX-125E > Creative Extigy > Wavelab > wav > flac

taped by John Bleich


Disc 1
set I

01   tuning
02   jam >
03   Mississippi Half-Step Toodleoo >
04   jam >
05   Tennessee Jed
06   crowd/tuning
07   Cumberland Blues
08   crowd/tuning
09   Crazy Fingers
10   crowd/Willie Nelson intro/tuning
11   I Know You Rider (1)
12   crowd/tuning
13   Going Down The Road Feeling Bad (1)


Disc 2
set II

01   tuning
02   Cold Rain and Snow >
03   jam >
04   Brown Eyed Women
05   crowd/tuning
06   Beautifully Broken >
07   jam >
08   Unbroken Chain >
09   j//am
10   Keep On Growin'

Disc 3
set II cont'd

01   Derek Trucks intro
02   Viola Lee Blues (2)
03   Turn On Your Love Light (2)
04   crowd
05   // donor rap/ band intros

encore:

06   Casey Jones


(1) with Willie Nelson
(2) with Derek Trucks


Notes:

- tapeflip in d1t08 crossfaded
- tapeflip in d2t09 crossfaded


Thanks to John for lending me his masters



transferred, edited and mastered
SIRMick
July 2008



shntool output:

    length     expanded size   cdr  WAVE problems filename
     1:25.56       15125756    ---   --   ---xx   paf2001-07-29d1t01.flac
     6:18.56       66810956    ---   --   ---xx   paf2001-07-29d1t02.flac
     8:34.55       90799004    ---   --   ---xx   paf2001-07-29d1t03.flac
     6:29.14       68652572    ---   --   ---xx   paf2001-07-29d1t04.flac
     8:53.54       94148252    ---   --   ---xx   paf2001-07-29d1t05.flac
     1:35.66       16913276    ---   --   ---xx   paf2001-07-29d1t06.flac
    11:33.55      122374604    ---   --   ---xx   paf2001-07-29d1t07.flac
     1:17.45       13688684    ---   --   ---xx   paf2001-07-29d1t08.flac
     8:35.18       90888380    ---   --   ---xx   paf2001-07-29d1t09.flac
     1:16.66       13561676    ---   --   ---xx   paf2001-07-29d1t10.flac
     8:05.67       85711628    ---   --   ---xx   paf2001-07-29d1t11.flac
     1:08.40       12089324    ---   --   ---xx   paf2001-07-29d1t12.flac
     9:43.23      102895340    ---   --   ---xx   paf2001-07-29d1t13.flac
     1:24.08       14836460    ---   --   ---xx   paf2001-07-29d2t01.flac
    12:46.52      135244748    ---   --   ---xx   paf2001-07-29d2t02.flac
     6:26.56       68222156    ---   --   ---xx   paf2001-07-29d2t03.flac
     6:07.21       64788236    ---   --   ---xx   paf2001-07-29d2t04.flac
     1:14.06       13067756    ---   --   ---xx   paf2001-07-29d2t05.flac
     7:45.28       82091900    ---   --   ---xx   paf2001-07-29d2t06.flac
     4:48.44       50906732    ---   --   ---xx   paf2001-07-29d2t07.flac
    10:59.46      116355836    ---   --   ---xx   paf2001-07-29d2t08.flac
     2:24.17       25441628    ---   --   ---xx   paf2001-07-29d2t09.flac
     9:14.09       97746812    ---   --   ---xx   paf2001-07-29d2t10.flac
     0:43.32        7660508    ---   --   ---xx   paf2001-07-29d3t01.flac
    12:14.03      129484700    ---   --   ---xx   paf2001-07-29d3t02.flac
    10:06.66      107053676    ---   --   ---xx   paf2001-07-29d3t03.flac
     0:55.45        9807884    ---   --   ---xx   paf2001-07-29d3t04.flac
     2:19.15       24554924    ---   --   ---xx   paf2001-07-29d3t05.flac
     7:13.17       76421228    ---   --   ---xx   paf2001-07-29d3t06.flac
   171:42.30     1817344636 B                     (totals for 29 files, 0.5937 overall compression ratio)


flac fingerprints:

paf2001-07-29d1t01.flac:e2d6066120b0319edc96f70cf194ee71
paf2001-07-29d1t02.flac:7ce99eb5fa5d8470eeb26d590e33fe8d
paf2001-07-29d1t03.flac:0feb5e30b16ace1677282d28ec69fae1
paf2001-07-29d1t04.flac:3dad6f20e67b948d77ee38ff254e7f5a
paf2001-07-29d1t05.flac:37ad65b3e89121acd684ae36b35ff584
paf2001-07-29d1t06.flac:5b6bbd32ad7870a343aae4ca5a8f4a25
paf2001-07-29d1t07.flac:ed5b7ff53e25023bd08ce152122b74e9
paf2001-07-29d1t08.flac:81af854ba3b1070765b6f8c2630a291e
paf2001-07-29d1t09.flac:30ce432b588b0fabbc7df90c93481a20
paf2001-07-29d1t10.flac:2993626528af4d582e6a2ce93a3a31ed
paf2001-07-29d1t11.flac:e6c1f24e614fca4a6bde5e099a71765a
paf2001-07-29d1t12.flac:c3e5dd70883fe9d39cacdd15f361def8
paf2001-07-29d1t13.flac:8eced66f1d888c30bf19e8a140c3a0f0
paf2001-07-29d2t01.flac:ac8a20c8960a3c67e19fdf0d9f1a3685
paf2001-07-29d2t02.flac:ee70be05d6f8b1d1047b757a95ed72d8
paf2001-07-29d2t03.flac:d98947750a2d8b1dc70ec28acaa3304d
paf2001-07-29d2t04.flac:02fff10b5417e3867764171143ebc3e9
paf2001-07-29d2t05.flac:be37a281ab794e93d3648c29c93dfa7e
paf2001-07-29d2t06.flac:7951a9882314996b00dfa7a73676ca17
paf2001-07-29d2t07.flac:e291322958a7cd453b9cdc4fb43abc60
paf2001-07-29d2t08.flac:57a162b84a7ace8f313be092f7858b44
paf2001-07-29d2t09.flac:3d820d96e58f493371381c2f8ba45c21
paf2001-07-29d2t10.flac:6dd7143e36161ad72fed2754c87b8da3
paf2001-07-29d3t01.flac:d837e98163641399aa1ea5deff7c5e3e
paf2001-07-29d3t02.flac:9b17d08b466cd42bcc7ce6b5cff08994
paf2001-07-29d3t03.flac:6cca3637a98a4b4792c5b826df52a47f
paf2001-07-29d3t04.flac:be59bf7b6dc3c7b96e8e6d9149c152a5
paf2001-07-29d3t05.flac:637d913950e4313dcd8ac2aa63f303c4
paf2001-07-29d3t06.flac:3f4e0905d72c10d92815fa6b2ea3c8c1
Show Checksums
ffp
paf2001-07-29d1t01.flac:e2d6066120b0319edc96f70cf194ee71
paf2001-07-29d1t02.flac:7ce99eb5fa5d8470eeb26d590e33fe8d
paf2001-07-29d1t03.flac:0feb5e30b16ace1677282d28ec69fae1
paf2001-07-29d1t04.flac:3dad6f20e67b948d77ee38ff254e7f5a
paf2001-07-29d1t05.flac:37ad65b3e89121acd684ae36b35ff584
paf2001-07-29d1t06.flac:5b6bbd32ad7870a343aae4ca5a8f4a25
paf2001-07-29d1t07.flac:ed5b7ff53e25023bd08ce152122b74e9
paf2001-07-29d1t08.flac:81af854ba3b1070765b6f8c2630a291e
paf2001-07-29d1t09.flac:30ce432b588b0fabbc7df90c93481a20
paf2001-07-29d1t10.flac:2993626528af4d582e6a2ce93a3a31ed
paf2001-07-29d1t11.flac:e6c1f24e614fca4a6bde5e099a71765a
paf2001-07-29d1t12.flac:c3e5dd70883fe9d39cacdd15f361def8
paf2001-07-29d1t13.flac:8eced66f1d888c30bf19e8a140c3a0f0
paf2001-07-29d2t01.flac:ac8a20c8960a3c67e19fdf0d9f1a3685
paf2001-07-29d2t02.flac:ee70be05d6f8b1d1047b757a95ed72d8
paf2001-07-29d2t03.flac:d98947750a2d8b1dc70ec28acaa3304d
paf2001-07-29d2t04.flac:02fff10b5417e3867764171143ebc3e9
paf2001-07-29d2t05.flac:be37a281ab794e93d3648c29c93dfa7e
paf2001-07-29d2t06.flac:7951a9882314996b00dfa7a73676ca17
paf2001-07-29d2t07.flac:e291322958a7cd453b9cdc4fb43abc60
paf2001-07-29d2t08.flac:57a162b84a7ace8f313be092f7858b44
paf2001-07-29d2t09.flac:3d820d96e58f493371381c2f8ba45c21
paf2001-07-29d2t10.flac:6dd7143e36161ad72fed2754c87b8da3
paf2001-07-29d3t01.flac:d837e98163641399aa1ea5deff7c5e3e
paf2001-07-29d3t02.flac:9b17d08b466cd42bcc7ce6b5cff08994
paf2001-07-29d3t03.flac:6cca3637a98a4b4792c5b826df52a47f
paf2001-07-29d3t04.flac:be59bf7b6dc3c7b96e8e6d9149c152a5
paf2001-07-29d3t05.flac:637d913950e4313dcd8ac2aa63f303c4
paf2001-07-29d3t06.flac:3f4e0905d72c10d92815fa6b2ea3c8c1
flac-md5
b627168d351a8219a124d3023c35f5e0 *paf2001-07-29d1t01.flac
91ec14047afc3647b131fa64f0fe1bd5 *paf2001-07-29d1t02.flac
835e09257b6839f2c9e209b56dd49c72 *paf2001-07-29d1t03.flac
70d9ba8f937f4c7d5e2666d909b9bbf6 *paf2001-07-29d1t04.flac
31b92e4d14324e3330e0d8dad043c11f *paf2001-07-29d1t05.flac
ac4d8a17d1cb189f9fbc48a89bc097d3 *paf2001-07-29d1t06.flac
248806d41f5d9ad4fc3c3c217fd98b82 *paf2001-07-29d1t07.flac
f79f6b0c1015c2ad5fa3eeaae436c7e4 *paf2001-07-29d1t08.flac
d8ac6c15267cbc23d2a7e770aebf3818 *paf2001-07-29d1t09.flac
e42bd9327132eb09c0eeb6ee373237d4 *paf2001-07-29d1t10.flac
6740d3d8bcd9476f753709b613b732a4 *paf2001-07-29d1t11.flac
b7b5b455485d22098b396818a35354b1 *paf2001-07-29d1t12.flac
c3eae2f6f08d43d27ab9ebd31731d708 *paf2001-07-29d1t13.flac
16acab1220be71baa6579f8c5328e3e2 *paf2001-07-29d2t01.flac
2f87ad5e4ecd644ec3c43da714be3c49 *paf2001-07-29d2t02.flac
5ab9d55d5cfe50b49b3b13e99b0dc996 *paf2001-07-29d2t03.flac
7c8c61eb00f198960feed1c5c8522ec0 *paf2001-07-29d2t04.flac
add1b251241d8842243da1b0f57ae9e0 *paf2001-07-29d2t05.flac
c9049365e1fd3c37e7271201a83e6ecd *paf2001-07-29d2t06.flac
6863f3d3b01a0fc4f650c31deeece76d *paf2001-07-29d2t07.flac
405e76f405fe7126a2abbaa9933bd0c3 *paf2001-07-29d2t08.flac
e85cd7d6a8e6b73af60da66dbecaa16f *paf2001-07-29d2t09.flac
9f3d6e9f711e5b2069a5a58a5bcb4e7b *paf2001-07-29d2t10.flac
3c5653f70a1bf4394d631d7e623be018 *paf2001-07-29d3t01.flac
bc39821021f07665ed4eed2e611146e0 *paf2001-07-29d3t02.flac
5d36d0785e8c0f777fc21d41fb261c05 *paf2001-07-29d3t03.flac
6da1e715b10f9d93ed0e2fe15828f9e0 *paf2001-07-29d3t04.flac
a0b6782bcd9a02099e6dc94f52256309 *paf2001-07-29d3t05.flac
21e461e89643d319dc01310f727296d1 *paf2001-07-29d3t06.flac

Comments
Add Comment
Other Sources (comments)
Source: AKG 460+CK63 > PS2... (1) Taper: Ben Ehrsam... (0) Taped Justin Carlson... (2) Unknown audience source via... (2)
Date User Comment