Browse Collections Artists Sources   Search Dates

Add Show    List Management    Help


Grateful Dead 08/17/80
Kansas City Municipal Auditorium Arena, Kansas City, MO
Comments Add Comment    Source Collectors    Add to Collection    Add to Want List    History
Source # 93037 Other Sources
Entered by Gary Field
Checksums ffp , flac-md5
Disc Counts 2 / 2
Media Size
Date Circulated
Date Added
07/23/2008
07/22/2008
Source Summary flac16; Recording Info:SBD -> Cassette Master -> Reel -> Dat (48k); Transfer Info:Dat (Sony R500) -> VXPocket v2 -> Samplitude Professional v10.1 -> Adobe Audition v1.5 -> FLAC; All Transfers and Mastering By Charlie Miller 
  Archive
Source Information - Download Text | Download Zip
Grateful Dead - August 17, 1980
Municipal Auditorium - Kansas City, MO

Recording Info:
SBD -> Cassette Master -> Reel -> Dat (48k)

Transfer Info:
Dat (Sony R500) -> VXPocket v2 -> Samplitude Professional v10.1 ->
Adobe Audition v1.5 -> FLAC (2 Discs Audio / 2 Discs FLAC)

All Transfers and Mastering By Charlie Miller
[email protected]
July 21, 2008

Patch Info:
Unknown Mics -> Cassette Master -> Cassette supplies:
Jack Straw (0:00 - 0:09)
Don't Ease Me In (complete track)
Samson And Delilah (0:00 - 2:25)
Truckin' (0:07 - 0:17)
U.S. Blues (0:00 - 3:37)

Notes:
-- Jerry's guitar is very low in the mix for most of Set 1
-- Thanks to Rob Eaton for lending me his Dats
-- Thanks to Joani Walker and Paul Scotton for the patch source
-- Thanks to Joe B. Jones for his help with the pitch correction

Set 1:
d1t01 - Jack Straw ->
d1t02 - Sugaree
d1t03 - Mama Tried ->
d1t04 - Mexicali Blues
d1t05 - Peggy-O
d1t06 - New Minglewood Blues
d1t07 - Friend Of The Devil
d1t08 - Far From Me ->
d1t09 - Lost Sailor ->
d1t10 - Saint Of Circumstance

Set 2:
d2t01 - Don't Ease Me In
d2t02 - Samson And Delilah
d2t03 - Scarlet Begonias ->
d2t04 - Fire On The Mountain ->
d2t05 - Drums ->
d2t06 - Space ->
d2t07 - The Wheel
d2t08 - Truckin' ->
d2t09 - Wharf Rat ->
d2t10 - Good Lovin'

Encore:
d2t11 - U.S. Blues


SHNTOOL OUTPUT:
    length     expanded size   cdr  WAVE problems filename
     5:25.43       57431180    ---   --   -----   gd80-08-17d1t01.wav
    10:19.24      109248092    ---   --   -----   gd80-08-17d1t02.wav
     2:20.15       24731324    ---   --   -----   gd80-08-17d1t03.wav
     4:29.31       47524556    ---   --   -----   gd80-08-17d1t04.wav
     6:23.32       67636508    ---   --   -----   gd80-08-17d1t05.wav
     7:20.57       77750108    ---   --   -----   gd80-08-17d1t06.wav
     9:06.59       96453212    ---   --   -----   gd80-08-17d1t07.wav
     3:49.48       40508540    ---   --   -----   gd80-08-17d1t08.wav
     6:24.74       67911692    ---   --   -----   gd80-08-17d1t09.wav
     6:19.02       66860348    ---   --   -----   gd80-08-17d1t10.wav
     3:27.53       36639500    ---   --   -----   gd80-08-17d2t01.wav
     6:57.50       73676444    ---   --   -----   gd80-08-17d2t02.wav
     9:37.22      101834588    ---   --   -----   gd80-08-17d2t03.wav
     9:20.48       98896940    ---   --   -----   gd80-08-17d2t04.wav
    10:03.72      106538588    ---   --   -----   gd80-08-17d2t05.wav
     3:17.13       34781420    ---   --   -----   gd80-08-17d2t06.wav
     4:52.03       51515900    ---   --   -----   gd80-08-17d2t07.wav
     7:44.61       81993116    ---   --   -----   gd80-08-17d2t08.wav
    10:07.74      107248892    ---   --   -----   gd80-08-17d2t09.wav
     7:18.05       77275004    ---   --   -----   gd80-08-17d2t10.wav
     5:24.41       57250076    ---   --   -----   gd80-08-17d2t11.wav
   140:11.02     1483706028 B                     (totals for 21 files)
Show Checksums
ffp
gd80-08-17d1t01.flac:23d7720e65edf267a09f1c4963a65e06
gd80-08-17d1t02.flac:dc605f715b8f00716bdc497ea754f64a
gd80-08-17d1t03.flac:3cc2bb5242121eaddc4ced11bbc2ed3f
gd80-08-17d1t04.flac:517e79fb57c7942bf7c1da7cfdf9db3c
gd80-08-17d1t05.flac:7ca7390ab2cea02520574c92177211c9
gd80-08-17d1t06.flac:0a0b4f0567bedc7899622e7d4391ae23
gd80-08-17d1t07.flac:9243e037a003f43b53c48f367c9fa8c4
gd80-08-17d1t08.flac:ef44dc589d196ef64063094308798f29
gd80-08-17d1t09.flac:84211a09f685d37cbeab116cf399d56f
gd80-08-17d1t10.flac:1362c7ece7ae291ed48c7daa6c438a98
gd80-08-17d2t01.flac:f9eaba5deb3eeb464a70c59c0158996a
gd80-08-17d2t02.flac:47c5e4e02f2f1cc46706d8bb2e7e8856
gd80-08-17d2t03.flac:61b17b77af2f5b27b2c66417bdbfb0df
gd80-08-17d2t04.flac:5c56ddf3eb6d3395c09649ba27f4324d
gd80-08-17d2t05.flac:bafab1c531ceda2d0286f49aa822761e
gd80-08-17d2t06.flac:b12c92476c73b120c8e44fe2f3b1c8f8
gd80-08-17d2t07.flac:2afa6cdf5efb75388aac1d46beff1ab8
gd80-08-17d2t08.flac:a33820953816a467072da7ca7fc1e03f
gd80-08-17d2t09.flac:9c40f572fd60b63499faa229e2a8d6ba
gd80-08-17d2t10.flac:56042791c0b80be53ebcf86914aee435
gd80-08-17d2t11.flac:89e4e24edb91d4cf5401400ee67ee96d
flac-md5
328a05ef1877cb69575edd8c24a4a63a *gd80-08-17d1t01.flac
e1a6cc27a2006f0d25235530056bba07 *gd80-08-17d1t02.flac
f5022b5e8fd5abe5f21bb354a9e70850 *gd80-08-17d1t03.flac
1d3b0e1414686822f2243683cc143890 *gd80-08-17d1t04.flac
e0c62050f7ad41342edd1665d87688ed *gd80-08-17d1t05.flac
f00c37186a3cf752da456d6135d07026 *gd80-08-17d1t06.flac
9d65b3af590bbbf24acee623ddd3dba1 *gd80-08-17d1t07.flac
9266dee055cfffe47aaedf8310c674a6 *gd80-08-17d1t08.flac
696ca6f8a88a3c61dfa1d092c40868b8 *gd80-08-17d1t09.flac
f3b50affe6e49c3fc8d094ac68f1a944 *gd80-08-17d1t10.flac
466c11f1d49a61ce7009e76f34d7624f *gd80-08-17d2t01.flac
114bfa436876f813a5b688ddee41d601 *gd80-08-17d2t02.flac
1daf96228739197b4e26c7d89110aee9 *gd80-08-17d2t03.flac
a3def3476f08521a9c0d866084d856e3 *gd80-08-17d2t04.flac
675dca9c8e2066283d316e704d5618c6 *gd80-08-17d2t05.flac
f8abbcaff6355346e85a827ba5edc850 *gd80-08-17d2t06.flac
0ea1c182da60ded586dd6279ff8fd8e0 *gd80-08-17d2t07.flac
e320535dd6a7522eab7c3ce40dd9cb5b *gd80-08-17d2t08.flac
e38e3b11721c82a75f6c4b4be3975249 *gd80-08-17d2t09.flac
16a34ef4913bff75213767cf97ec4048 *gd80-08-17d2t10.flac
e2d60d56f47bf2585b6ec2a8d3d677b5 *gd80-08-17d2t11.flac

Comments
Add Comment
Other Sources (comments)
AUD>?>CD; via Paul B;... (0)
Date User Comment