Browse Collections Artists Sources   Search Dates

Add Show    List Management    Help


Grateful Dead 08/14/79
McNichols Sports Arena, Denver, CO
Comments Add Comment    Source Collectors    Add to Collection    Add to Want List    History
Source # 93047 Other Sources
Entered by Gary Field
Checksums flac-md5 , ffp
Disc Counts 2 / 3
Media Size
Date Circulated
Date Added
07/23/2008
07/23/2008
Source Summary flac16;Recording Info:(2)Sennheiser 441 + (1)Sennheiser 421 -> Cassette Master(Nakamichi 550) -> Dat(48k) Recorded by Rob Eaton; Transfer Info:Dat (Sony R500) -> VXPocket v2 -> Samplitude Professional v10.1 -> FLAC; All Transfers and Mastering By Charlie Miller 
  Archive
Source Information - Download Text | Download Zip
Grateful Dead - August 14, 1979
McNichols Arena - Denver, CO

Recording Info:
(2)Sennheiser 441 + (1)Sennheiser 421 -> Cassette Master(Nakamichi 550) -> Dat(48k)

Transfer Info:
Dat (Sony R500) -> VXPocket v2 -> Samplitude Professional v10.1 -> FLAC
(3 Discs Audio / 2 Discs FLAC)

All Transfers and Mastering By Charlie Miller
[email protected]
July 22, 2008

Notes:
-- Set 2 is seamless
-- Recorded by Rob Eaton
-- Cassette Master digitzied by Rob Eaton

Set 1:
d1t01 - Tuning
d1t02 - Jack Straw
d1t03 - Jack-A-Roe
d1t04 - Mama Tried ->
d1t05 - Mexicali Blues
d1t06 - Tennessee Jed
d1t07 - Easy To Love You
d1t08 - Passenger
d1t09 - Stagger Lee
d1t10 - The Music Never Stopped

Set 2:
d2t01 - Tuning
d2t02 - The Promised Land
d2t03 - Ship Of Fools
d2t04 - Samson And Delilah
d2t05 - Terrapin Station ->
d2t06 - Playing In The Band ->
d2t07 - Drums ->
d3t01 - Space ->
d3t02 - Not Fade Away ->
d3t03 - Stella Blue ->
d3t04 - Good Lovin'

Encore:
d3t05 - U.S. Blues ->
d3t06 - Johnny B. Goode


SHNTOOL OUTPUT:
    length     expanded size   cdr  WAVE problems filename
     1:43.22       18220988    ---   --   -----   gd79-08-14d1t01.wav
     5:54.36       62530316    ---   --   -----   gd79-08-14d1t02.wav
     5:29.58       58172060    ---   --   -----   gd79-08-14d1t03.wav
     2:35.01       27344396    ---   --   -----   gd79-08-14d1t04.wav
     5:08.57       54465308    ---   --   -----   gd79-08-14d1t05.wav
     8:58.62       95049068    ---   --   -----   gd79-08-14d1t06.wav
     4:33.58       48293660    ---   --   -----   gd79-08-14d1t07.wav
     5:49.19       61608332    ---   --   -----   gd79-08-14d1t08.wav
     6:56.55       73511804    ---   --   -----   gd79-08-14d1t09.wav
     7:52.67       83418428    ---   --   -----   gd79-08-14d1t10.wav
     0:44.59        7900412    ---   --   -----   gd79-08-14d2t01.wav
     4:44.51       50217596    ---   --   -----   gd79-08-14d2t02.wav
     7:33.68       80069180    ---   --   -----   gd79-08-14d2t03.wav
     7:19.20       77486684    ---   --   -----   gd79-08-14d2t04.wav
    12:03.31      127610156    ---   --   -----   gd79-08-14d2t05.wav
    13:34.27      143653148    ---   --   -----   gd79-08-14d2t06.wav
    12:13.11      129327116    ---   --   -----   gd79-08-14d2t07.wav
     8:19.57       88157708    ---   --   -----   gd79-08-14d3t01.wav
     9:22.05       99148604    ---   --   -----   gd79-08-14d3t02.wav
    10:55.37      115629068    ---   --   -----   gd79-08-14d3t03.wav
     8:23.12       88757468    ---   --   -----   gd79-08-14d3t04.wav
     5:25.31       57402956    ---   --   -----   gd79-08-14d3t05.wav
     4:29.68       47611580    ---   --   -----   gd79-08-14d3t06.wav
   160:12.12     1695586036 B                     (totals for 23 files)
Show Checksums
flac-md5
3478237035329ed4528a91e48f7b767c *gd79-08-14d1t01.flac
b5389abb44a371423a19ef6f413350ac *gd79-08-14d1t02.flac
9335f36d976d0dee48688ae4eb3cd99c *gd79-08-14d1t03.flac
c6e472c69a0b9173c2c2d6fc9da4bb73 *gd79-08-14d1t04.flac
08ed10f203db2fe43dfc830169f3f335 *gd79-08-14d1t05.flac
158984360a0dd484c68aa0222136824d *gd79-08-14d1t06.flac
29a8ced8a30bff4661c321f628f7aeef *gd79-08-14d1t07.flac
64484b8fbc9343ef73bce92d976e1740 *gd79-08-14d1t08.flac
429cc6d4833c5f06c5391932876d1145 *gd79-08-14d1t09.flac
3cc8de9df9a31eb3a0f3ba25c56e26d9 *gd79-08-14d1t10.flac
5a797d838bd938c3ade7fcfafd64db7a *gd79-08-14d2t01.flac
c4005a1ab58016d1b145749aaad5eb8c *gd79-08-14d2t02.flac
000e5fd263d49dcb9a945a96852ce5e5 *gd79-08-14d2t03.flac
dce5cef46a65b74f3b92a7d814e61e59 *gd79-08-14d2t04.flac
4c34d1c430cd7c00a7d5f81dabcec191 *gd79-08-14d2t05.flac
2d7363a6b071d0fb1d38d01f21cf7848 *gd79-08-14d2t06.flac
938957978331c882aa47c2791fe31760 *gd79-08-14d2t07.flac
9a6bb2ea613420b317db9e701061f3b6 *gd79-08-14d3t01.flac
372135fa3c5423707bb1a4dd3e30f57f *gd79-08-14d3t02.flac
6085c84824cb16e62e3366933839aa1b *gd79-08-14d3t03.flac
7ec9df25a6ebb141c673a4ecf3f79d88 *gd79-08-14d3t04.flac
7d552c0b98a58ee7827782e7b6124633 *gd79-08-14d3t05.flac
9fc9129b6e068198f0b6817bc0f6b8f3 *gd79-08-14d3t06.flac
ffp
gd79-08-14d1t01.flac:3416a62803f085d990eeef42c7f2cf36
gd79-08-14d1t02.flac:861b8227f1d3a445bd06eff51804ffad
gd79-08-14d1t03.flac:2e1eca922672ef9193911591e3f68d92
gd79-08-14d1t04.flac:10b87df76b6a90ea466818080efdfbc7
gd79-08-14d1t05.flac:f74277d9e1b52e780747c10a3c3407c7
gd79-08-14d1t06.flac:c9b99708ec8e50fde1c0670829d31f12
gd79-08-14d1t07.flac:09d4d4c224724323b8132f460c9aff9d
gd79-08-14d1t08.flac:37cdcfc0261b468e28b806770a765134
gd79-08-14d1t09.flac:7e1f54371520fa03d41819a3c11ef873
gd79-08-14d1t10.flac:4cbed9741f6bb1beb559494a9ece8436
gd79-08-14d2t01.flac:f4d8d29aeb7117e5dcd09bf618e644d1
gd79-08-14d2t02.flac:6b16998c6a01c6b3409defd11f588c58
gd79-08-14d2t03.flac:ca4ace678895f118158696da759be236
gd79-08-14d2t04.flac:d0a9315c760c7b247a895877c7c6c06e
gd79-08-14d2t05.flac:b913029592071c6c0a6d02673af54ea0
gd79-08-14d2t06.flac:475d126f9e30001b40384df8b3c22f04
gd79-08-14d2t07.flac:58594d852ddcd47da0632b4c86beb3df
gd79-08-14d3t01.flac:df92af605ca21dc03433149da05842b8
gd79-08-14d3t02.flac:7397c3add2e693ef61c3600d94e94c24
gd79-08-14d3t03.flac:98269abdeebd653f8c09c4930cb3c9c3
gd79-08-14d3t04.flac:76b9ffa32227a6d87c7456b933bce12a
gd79-08-14d3t05.flac:74874d960d87d6ae1d6de9423714b2bb
gd79-08-14d3t06.flac:a074ca82183475c7ef7f5efdf15d5c4c

Comments
Add Comment
Other Sources (comments)
FOB-AUD>MC>DAT>CDR; via... (0) flac16; SBD ->... (0) flac16; Partial Set... (0)
Date User Comment