Browse Collections Artists Sources   Search Dates

Add Show    List Management    Help


Grateful Dead 06/20/87
Greek Theatre, University Of California, Berkeley, CA
Comments Add Comment    Source Collectors    Add to Collection    Add to Want List    History
Source # 93080 Other Sources
Entered by Gary Field
Checksums flac-md5 , ffp
Disc Counts 2 / 2
Media Size
Date Circulated
Date Added
07/24/2008
07/23/2008
Source Summary flac16; Recording Info:SBD -> PCM -> AIFF; Transfer Info: AIFF -> Samplitude Professional v10.1 -> FLAC; All Transfers and Mastering By Charlie Miller 
  Archive
Source Information - Download Text | Download Zip
Grateful Dead - June 20, 1987
Greek Theatre - Berkeley, CA

Recording Info:
SBD -> PCM -> AIFF

Transfer Info:
AIFF -> Samplitude Professional v10.1 -> FLAC
(2 Discs Audio / 2 Discs FLAC)

All Transfers and Mastering By Charlie Miller
[email protected]
July 22, 2008

Notes:
-- Disc change is seamless

Set 1:
d1t01 - Hell In A Bucket ->
d1t02 - Franklin's Tower
d1t03 - New Minglewood Blues
d1t04 - Loser
d1t05 - My Brother Esau
d1t06 - Bird Song

Set 2:
d1t07 - Space ->
d1t08 - Iko Iko
d2t01 - Looks Like Rain
d2t02 - Deal ->
d2t03 - Drums ->
d2t04 - Space ->
d2t05 - Gimme Some Lovin' ->
d2t06 - All Along The Watchtower ->
d2t07 - The Wheel ->
d2t08 - The Other One ->
d2t09 - Wharf Rat ->
d2t10 - Sugar Magnolia

Encore:
d2t11 - One More Saturday Night


SHNTOOL OUTPUT:
    length     expanded size   cdr  WAVE problems filename
     6:23.29       67629452    ---   --   -----   gd87-06-20d1t01.wav
     8:57.23       94780940    ---   --   -----   gd87-06-20d1t02.wav
     8:23.11       88755116    ---   --   -----   gd87-06-20d1t03.wav
     9:10.50       97137644    ---   --   -----   gd87-06-20d1t04.wav
     5:48.57       61521308    ---   --   -----   gd87-06-20d1t05.wav
     9:38.48      102072140    ---   --   -----   gd87-06-20d1t06.wav
     1:33.05       16417004    ---   --   -----   gd87-06-20d1t07.wav
     8:46.51       92906396    ---   --   -----   gd87-06-20d1t08.wav
     8:41.03       91911500    ---   --   -----   gd87-06-20d2t01.wav
     6:34.00       69501644    ---   --   -----   gd87-06-20d2t02.wav
    11:07.26      117719996    ---   --   -----   gd87-06-20d2t03.wav
     9:30.26      100609196    ---   --   -----   gd87-06-20d2t04.wav
     4:56.56       52346156    ---   --   -----   gd87-06-20d2t05.wav
     4:34.29       48401852    ---   --   -----   gd87-06-20d2t06.wav
     4:37.44       48966332    ---   --   -----   gd87-06-20d2t07.wav
     4:48.66       50958476    ---   --   -----   gd87-06-20d2t08.wav
     8:53.06       94035356    ---   --   -----   gd87-06-20d2t09.wav
    10:13.54      108260252    ---   --   -----   gd87-06-20d2t10.wav
     5:06.27       54041948    ---   --   -----   gd87-06-20d2t11.wav
   137:45.11     1457972708 B                     (totals for 19 files)
Show Checksums
flac-md5
bc0af1566af8a5890352b64beafaa3e9 *gd87-06-20d1t01.flac
ac6bd848a8344f7ba0000a651afd155a *gd87-06-20d1t02.flac
b7e24f4a6bb88a963942e62a1e520565 *gd87-06-20d1t03.flac
c5c27119222cbc5f84f81100ec856911 *gd87-06-20d1t04.flac
901fafd529e5bd58c9839248da9cd4c2 *gd87-06-20d1t05.flac
c1b08b813a7b990fe73d937dd1eaec5b *gd87-06-20d1t06.flac
29911968c3ae75d3886d96d4e404805b *gd87-06-20d1t07.flac
857dc21f737255b5988dc0887f3b1c41 *gd87-06-20d1t08.flac
7104590ee0dd1a755692e53f7c1dcc2c *gd87-06-20d2t01.flac
be734c810ce3c0d43dc1bfee1de71b87 *gd87-06-20d2t02.flac
f2bf75e5d21e1a92f08374f7f1adc1cb *gd87-06-20d2t03.flac
7ecddad378bd15590590745b47782d1a *gd87-06-20d2t04.flac
551ab7a826401cc7c3a99b2c0b6e133f *gd87-06-20d2t05.flac
293cc82f5916da7c8ae5002225742a9b *gd87-06-20d2t06.flac
51769f0b6d1a6c196623afe119c21658 *gd87-06-20d2t07.flac
ec10bac180aa61c444f2a6cfce8523bc *gd87-06-20d2t08.flac
764f3cf9ac716b84a1b6d15998256a3b *gd87-06-20d2t09.flac
8342e1eda5d5bddda4569da06df65387 *gd87-06-20d2t10.flac
54bc6c6386e427e9231399818a9840e1 *gd87-06-20d2t11.flac
ffp
gd87-06-20d1t01.flac:ca02531f0224b22b706c5f3a9fc16838
gd87-06-20d1t02.flac:1f7cb84ad0d7934bae75076d8f64b6f1
gd87-06-20d1t03.flac:b479b5d9f9b081c7ec3cb5d76205fd76
gd87-06-20d1t04.flac:0190f70aadda54746cb43083541fc6b3
gd87-06-20d1t05.flac:45ca9a3aa330dc9cde0a3612e15468fa
gd87-06-20d1t06.flac:293c3ac6ccffb1fb4cab2975180af58a
gd87-06-20d1t07.flac:33343f647f0f17c3535a2bc53beed1d1
gd87-06-20d1t08.flac:287eab74d6011fcfa6c47d035ddc57c1
gd87-06-20d2t01.flac:89bc34121a34ff02b4bab7388be96e90
gd87-06-20d2t02.flac:e9b751354cf067ef5cdb6e5d5190c848
gd87-06-20d2t03.flac:b552c0a19e1355b52a8cc59c6c6681a5
gd87-06-20d2t04.flac:56aee4b3c473b9145640cd5f22a0415e
gd87-06-20d2t05.flac:26286e322952a1eba6452c1ebeeb7052
gd87-06-20d2t06.flac:86d45cb8e05bc7be4612f81b52121187
gd87-06-20d2t07.flac:3160bde56aaaf2a891b26860822b8713
gd87-06-20d2t08.flac:160e9aaff51c62ec2f5215b3635d98cd
gd87-06-20d2t09.flac:6969434954c1cdbd4972a18a32e67280
gd87-06-20d2t10.flac:819dbc30cb7e912250f4b91fda609e03
gd87-06-20d2t11.flac:c8759d922d0585b20dece630a7d2d064

Comments
Add Comment
Other Sources (comments)
SBD/Matrix>Cm>PCM>DAT>CD;... (0) Master Soundboard Cassette>... (0) flac16; Taped by... (0) flac16; Source:... (0) flac16; Recording... (0) DTS Audio 5.1;... (0) flac24; Taper: Danny... (0) flac16; Taper: Danny... (0) flac24; Source:... (0) flac16; Source: AKG... (0)
Date User Comment
12/07/2010 cfrolio FM or pre-FM source? There's a station ID at the beginning of Sugar Magnolia.
12/07/2010 charliemiller Pre-FM