Browse Collections Artists Sources   Search Dates

Add Show    List Management    Help


Grateful Dead 10/24/79
Springfield Civic Center, Springfield, MA
Comments Add Comment    Source Collectors    Add to Collection    Add to Want List    History
Source # 93142 Other Sources
Entered by Matt Vernon
Checksums flac-md5 , ffp
Disc Counts 2 / 3
Media Size
Date Circulated
Date Added
07/24/2008
07/24/2008
Source Summary flac16; Recording Info:(2)Sennheiser 441 + (1)Sennheiser 421 -> Cassette Master(Nakamichi 550) -> Dat(48k)-Recorded by Rob Eaton;Transfer Info:Dat (Sony R500) -> VXPocket v2 -> Samplitude Professional v10.1 -> FLAC; All Transfers and Mastering By Charlie Miller 
  Archive
Source Information - Download Text | Download Zip
Grateful Dead - October 24, 1979
Civic Center - Springfield, MA

Recording Info:
(2)Sennheiser 441 + (1)Sennheiser 421 -> Cassette Master(Nakamichi 550) -> Dat(48k)

Transfer Info:
Dat (Sony R500) -> VXPocket v2 -> Samplitude Professional v10.1 -> FLAC
(3 Discs Audio / 2 Discs FLAC)

All Transfers and Mastering By Charlie Miller
[email protected]
July 24, 2008

Notes:
-- Set 2 disc change is seamless
-- Recorded by Rob Eaton
-- Cassette Master digitzied by Rob Eaton

Set 1:
d1t01 - Tuning
d1t02 - The Promised Land
d1t03 - Loser
d1t04 - Mama Tried ->
d1t05 - Mexicali Blues
d1t06 - They Love Each Other
d1t07 - New Minglewood Blues
d1t08 - Dire Wolf
d1t09 - Easy To Love You
d1t10 - Lost Sailor ->
d1t11 - Saint Of Circumstance

Set 2:
d2t01 - Scarlet Begonias ->
d2t02 - Fire On The Mountain
d2t03 - Samson And Delilah
d2t04 - Terrapin Station ->
d2t05 - Playing In The Band ->
d2t06 - Drums ->
d3t01 - Space ->
d3t02 - Wharf Rat ->
d3t03 - Playing In The Band

Encore:
d3t04 - Johnny B. Goode


SHNTOOL OUTPUT:
    length     expanded size   cdr  WAVE problems filename
     2:43.13       28783820    ---   --   -----   gd79-10-24d1t01.wav
     4:46.18       50492780    ---   --   -----   gd79-10-24d1t02.wav
     7:37.69       80777132    ---   --   -----   gd79-10-24d1t03.wav
     2:45.63       29254220    ---   --   -----   gd79-10-24d1t04.wav
     5:18.00       56095244    ---   --   -----   gd79-10-24d1t05.wav
     9:05.65       96290924    ---   --   -----   gd79-10-24d1t06.wav
     7:45.40       82120124    ---   --   -----   gd79-10-24d1t07.wav
     4:46.19       50495132    ---   --   -----   gd79-10-24d1t08.wav
     5:43.09       60526412    ---   --   -----   gd79-10-24d1t09.wav
     6:12.17       65660828    ---   --   -----   gd79-10-24d1t10.wav
     5:53.49       62384492    ---   --   -----   gd79-10-24d1t11.wav
     9:48.69      103885532    ---   --   -----   gd79-10-24d2t01.wav
    14:03.70      148869884    ---   --   -----   gd79-10-24d2t02.wav
     7:17.06       77100956    ---   --   -----   gd79-10-24d2t03.wav
    12:59.58      137552060    ---   --   -----   gd79-10-24d2t04.wav
    10:23.48      110010140    ---   --   -----   gd79-10-24d2t05.wav
     6:54.62       73175468    ---   --   -----   gd79-10-24d2t06.wav
     4:13.71       44796236    ---   --   -----   gd79-10-24d3t01.wav
    10:21.26      109605596    ---   --   -----   gd79-10-24d3t02.wav
     5:55.45       62727884    ---   --   -----   gd79-10-24d3t03.wav
     4:19.29       45755852    ---   --   -----   gd79-10-24d3t04.wav
   148:56.21     1576360716 B                     (totals for 21 files)
Show Checksums
flac-md5
e78643545fe2d217114308210a8fae15 *gd79-10-24d1t01.flac
64326b407f919bc38799a4940c27839f *gd79-10-24d1t02.flac
284e08bd22ae0dc610820f1f13eb25d9 *gd79-10-24d1t03.flac
e2f6f833d72652ae648079eb5430f597 *gd79-10-24d1t04.flac
bfc3158a883ad87e8cf6f7dabaf4cd58 *gd79-10-24d1t05.flac
730e75f95ed8957bb662065e72ae4e93 *gd79-10-24d1t06.flac
fde9abb68eb798ab0eb92a1564a800fe *gd79-10-24d1t07.flac
a1ab50896bfd45899e2e17021f6c7fab *gd79-10-24d1t08.flac
74f9c23b7d384395d820098073756789 *gd79-10-24d1t09.flac
317137480b836f7139a52242901d6fe5 *gd79-10-24d1t10.flac
a43fcd98e369293bc2b4853d7b6e2255 *gd79-10-24d1t11.flac
58d2da582ed4fa4cfcf2e3ea6d0a1dfb *gd79-10-24d2t01.flac
2181159509fe7ae27fd0bd382386e818 *gd79-10-24d2t02.flac
737cb43c62769df00f4e58af98545458 *gd79-10-24d2t03.flac
c1e159fb47a15414696e176b2c025c78 *gd79-10-24d2t04.flac
dcffe3cc618e968bf96394311ee5b00d *gd79-10-24d2t05.flac
a0feb68fd026251d329956036f5c4738 *gd79-10-24d2t06.flac
6531122711e0632af2ff9ca6b4d140fb *gd79-10-24d3t01.flac
a965e740ec012aa355af2e7be6aa80c2 *gd79-10-24d3t02.flac
13a5290633bdef612589c5c0084422cd *gd79-10-24d3t03.flac
e7062387b32224dd3aa76d778e1f91ea *gd79-10-24d3t04.flac
ffp
gd79-10-24d1t01.flac:6888e572cf0e84e00de453d4ed60fcaf
gd79-10-24d1t02.flac:7be4a7b45179432feb4681e61a2d0741
gd79-10-24d1t03.flac:b9f88887ba80e750fd9ff264d04176c7
gd79-10-24d1t04.flac:1104902bb6c80933e0b951045e1fc6dc
gd79-10-24d1t05.flac:26e72c02af7b6b7f4d4fe3d6e1bb7fdd
gd79-10-24d1t06.flac:6204c74ffc445341432083966f169b70
gd79-10-24d1t07.flac:1f2ef8e9484a67d766bf9f00cc3df5c1
gd79-10-24d1t08.flac:1fac988fc19306c894e0967f71e0db1f
gd79-10-24d1t09.flac:755c3aa8572f4f5ae51aad7c69781627
gd79-10-24d1t10.flac:d2c602594a2345fb9971dc32b76a4332
gd79-10-24d1t11.flac:1d1c05b41749482965cb458a5f2e57c3
gd79-10-24d2t01.flac:3bfad8da3b4477f664976c1ed301fbe9
gd79-10-24d2t02.flac:66d2871ac2455f7dcb13fa58e978500d
gd79-10-24d2t03.flac:9e0221df5733ee35376ef6c6fb8f2195
gd79-10-24d2t04.flac:d24b5b5d4ce42c4f5e2d11914fa4156f
gd79-10-24d2t05.flac:faa30b565d3cc6e65feade81ca8743ca
gd79-10-24d2t06.flac:13e767b339eb5491a7a3c66130f5acbe
gd79-10-24d3t01.flac:997718443a54b1a4cef0847fdc8d8973
gd79-10-24d3t02.flac:d4c793d2323f7bc69d36eb0b8741d117
gd79-10-24d3t03.flac:444382196877ab074aa2d90d531d2488
gd79-10-24d3t04.flac:737a2f2bf583c54983a2438cfa6b62b3

Comments
Add Comment
Other Sources (comments)
AUD(Senn 421's>Nak... (0) Recording by Steve Rolfe:... (0) flac16; Set 2 only,... (1)
Date User Comment