Browse Collections Artists Sources   Search Dates

Add Show    List Management    Help


Grateful Dead 10/25/79
Veterans' Memorial Coliseum, New Haven, CT
Comments Add Comment    Source Collectors    Add to Collection    Add to Want List    History
Source # 93143 Other Sources
Entered by Matt Vernon
Checksums flac-md5 , ffp
Disc Counts 2 / 3
Media Size
Date Circulated
Date Added
07/24/2008
07/24/2008
Source Summary flac16; Recording Info:(2)Sennheiser 441 + (1)Sennheiser 421 -> Cassette Master(Nakamichi 550) -> Dat(48k)-Recorded by Rob Eaton;Transfer Info:Dat (Sony R500) -> VXPocket v2 -> Samplitude Professional v10.1 -> FLAC; All Transfers and Mastering By Charlie Miller 
  Archive
Source Information - Download Text | Download Zip
Grateful Dead - October 25, 1979
New Haven Coliseum - New Haven, CT  

Recording Info:
(2)Sennheiser 441 + (1)Sennheiser 421 -> Cassette Master(Nakamichi 550) -> Dat(48k)

Transfer Info:
Dat (Sony R500) -> VXPocket v2 -> Samplitude Professional v10.1 -> FLAC
(3 Discs Audio / 2 Discs FLAC)

All Transfers and Mastering By Charlie Miller
[email protected]
July 24, 2008

Notes:
-- Set 2 disc change is seamless
-- Recorded by Rob Eaton
-- Cassette Master digitzied by Rob Eaton

Set 1:
d1t01 - Tuning
d1t02 - Don't Ease Me In
d1t03 - Cassidy
d1t04 - Peggy-O
d1t05 - El Paso
d1t06 - Brown Eyed Women
d1t07 - It's All Over Now
d1t08 - Tennessee Jed
d1t09 - Looks Like Rain
d1t10 - Deal

Set 2:
d2t01 - Tuning
d2t02 - Shakedown Street
d2t03 - Passenger
d2t04 - Friend Of The Devil
d3t01 - Estimated Prophet ->
d3t02 - Eyes Of The World ->
d3t03 - Drums ->
d3t04 - Space ->
d3t05 - Stella Blue ->
d3t06 - Good Lovin'

Encore:
d3t07 - U.S. Blues


SHNTOOL OUTPUT:
    length     expanded size   cdr  WAVE problems filename
     2:01.66       21499676    ---   --   -----   gd79-10-25d1t01.wav
     5:05.01       53804396    ---   --   -----   gd79-10-25d1t02.wav
     5:04.36       53710316    ---   --   -----   gd79-10-25d1t03.wav
     7:08.60       75640364    ---   --   -----   gd79-10-25d1t04.wav
     5:05.53       53926700    ---   --   -----   gd79-10-25d1t05.wav
     5:50.28       61805900    ---   --   -----   gd79-10-25d1t06.wav
    13:03.42      138220028    ---   --   -----   gd79-10-25d1t07.wav
     8:07.70       86071484    ---   --   -----   gd79-10-25d1t08.wav
     8:27.68       89594780    ---   --   -----   gd79-10-25d1t09.wav
     5:55.27       62685548    ---   --   -----   gd79-10-25d1t10.wav
     1:31.43       16153580    ---   --   -----   gd79-10-25d2t01.wav
    16:45.55      177411404    ---   --   -----   gd79-10-25d2t02.wav
     5:34.67       59075228    ---   --   -----   gd79-10-25d2t03.wav
    11:46.66      124693676    ---   --   -----   gd79-10-25d2t04.wav
    13:57.46      147755036    ---   --   -----   gd79-10-25d3t01.wav
    18:20.59      194178812    ---   --   -----   gd79-10-25d3t02.wav
     5:29.13       58066220    ---   --   -----   gd79-10-25d3t03.wav
     2:05.63       22198220    ---   --   -----   gd79-10-25d3t04.wav
    11:44.31      124258556    ---   --   -----   gd79-10-25d3t05.wav
     8:03.33       85278860    ---   --   -----   gd79-10-25d3t06.wav
     5:32.66       58720076    ---   --   -----   gd79-10-25d3t07.wav
   166:44.18     1764748860 B                     (totals for 21 files)
Show Checksums
flac-md5
ecd16401ae7a626957e179412c3f10b5 *gd79-10-25d1t01.flac
9d9edd023afc0ceb31e1f873ed3a81f9 *gd79-10-25d1t02.flac
b23d44a9ac8b83556b9b9cfefb8561b7 *gd79-10-25d1t03.flac
bc1ac7db6badf2a8dc20aa7254cb6fb9 *gd79-10-25d1t04.flac
51b0b793d6f56e0fafd07dc985683f2c *gd79-10-25d1t05.flac
559c3d80ed864a207180a7447abaca9d *gd79-10-25d1t06.flac
0c0badd7df34ce2166954c708a823f86 *gd79-10-25d1t07.flac
588f1b64bb88db5c93045615f4c000bb *gd79-10-25d1t08.flac
67c46929e7e539f170913e95c7297a06 *gd79-10-25d1t09.flac
18c708c241ec9e7d199e2c7825765657 *gd79-10-25d1t10.flac
86ebdfa1536f4cc6a2e3a26f3a1cc41d *gd79-10-25d2t01.flac
889609e4ddba2f0664e77c2fc7255dc7 *gd79-10-25d2t02.flac
2e4dd43d1ea045b0808ba4b0f8c810c7 *gd79-10-25d2t03.flac
c0aaf623cc70fa34ae6258427b97dbe6 *gd79-10-25d2t04.flac
8b7f49f6b9d2dd0b24fa143a668894c8 *gd79-10-25d3t01.flac
560c292da04d754b01e7e50af9c42c49 *gd79-10-25d3t02.flac
3b58a96110e6d496d18184d0a55d75d6 *gd79-10-25d3t03.flac
f9849f44615d6a5d36c7c6baa2ed9920 *gd79-10-25d3t04.flac
72938b8bcb787f06d54b68b78cae5e0b *gd79-10-25d3t05.flac
a238d005090c67214c5800256c2abd1a *gd79-10-25d3t06.flac
07ca839f32f02677cf0c83f808937b38 *gd79-10-25d3t07.flac
ffp
gd79-10-25d1t01.flac:cf9e4684b34ecda3f15ec8ece266891a
gd79-10-25d1t02.flac:ed80a1366b6ee1b1ceab67483e8a227e
gd79-10-25d1t03.flac:dd0767bc89dd8530044f2274ced521d9
gd79-10-25d1t04.flac:16c17d7878c50ab95c9d1d21f03fd847
gd79-10-25d1t05.flac:a81f99b1c327cfeab05a3afd0fb4a3c1
gd79-10-25d1t06.flac:712175318a8493980e10e7e21e154447
gd79-10-25d1t07.flac:fd3a2baa7f0529d2c86968f4414f343e
gd79-10-25d1t08.flac:d05b53d633dfe871a718c02bf630e68a
gd79-10-25d1t09.flac:7eb6815d28070754914c8f8244d75c7b
gd79-10-25d1t10.flac:aa80bebd0d78b8d9ab953ff244403aee
gd79-10-25d2t01.flac:267c0331bc99073785add54b15fecaa4
gd79-10-25d2t02.flac:0a133a61c9ea3898f62f5260413464b1
gd79-10-25d2t03.flac:42e3f381fa500a0f2d0c5a664f4b659a
gd79-10-25d2t04.flac:92ccb0d28b333d62355d7c11b075aad6
gd79-10-25d3t01.flac:123c381ba469518a765ee3d26d17ea01
gd79-10-25d3t02.flac:668dc177414da61312befd80d5b648fa
gd79-10-25d3t03.flac:9d4f7e6f10cf569d8daeb4e018c9cc53
gd79-10-25d3t04.flac:1aee8ff9dddfe76dcd220b8e5421b545
gd79-10-25d3t05.flac:880590fbcdc1298c73b17542317fd6af
gd79-10-25d3t06.flac:1a71d0d1faaac624d2538feb077b9ab6
gd79-10-25d3t07.flac:9c16bf163ad18e30fcc19290307a922d

Comments
Add Comment
Other Sources (comments)
Set 2 SBD > Cass (Dolby S)... (2) Aud:M?>?>CD (It may be... (0) Set 2 : SBD>Cassette... (0) Recording Info: Set 1:... (1) Upgrade to previous shn set... (0) flac16; Set 2... (0)
Date User Comment