Browse Collections Artists Sources   Search Dates

Add Show    List Management    Help


Grateful Dead 04/10/87
UIC Pavilion, Chicago, IL
Comments Add Comment    Source Collectors    Add to Collection    Add to Want List    History
Source # 93385 Other Sources
Entered by Matt Vernon
Checksums ffp , flac-md5
Disc Counts 2 / 2
Media Size
Date Circulated
Date Added
07/27/2008
07/27/2008
Source Summary flac16; OTS AUD: Nakamichi CM300's w/CP4 shotguns > Sony TC-D5M > Maxell MX-90's, with no Dolby. Taped by Ted Gidley. Transfer: MAC > Nakamichi DR-8 (no Dolby) > Audiophile 2469 > Soundforge > CD-Wave > TLH > FLAC, July 2008 by Andrew F. 
  Archive
Source Information - Download Text | Download Zip
GRATEFUL DEAD
UIC Pavilion
Chicago IL
04-10-1987

Disc One (67:01)

01 crowd & tuning
02 Shakedown Street
03 Little Red Rooster
04 Candyman
05 MAMU false start >
06 Me & My Uncle >
07 Mexicali Blues
08 Brown Eyed Women
09 Cassidy >
10 Don't Ease Me In
-- set break --
11 crowd & tuning
12 Iko
13 Looks Like Rain

Disc Two (65:52)

01 crowd & phil
02 Box of Rain
03 He's Gone >
04 Drums >
05 Space >
06 The Other One >
07 Black Peter >
08 Around & Around >
09 Turn on Your Lovelight
-- encore --
10 It's All Over Now, Baby Blue

OTS AUD: Nakamichi CM300's w/CP4 shotguns > Sony TC-D5M >
Maxell MX-90's, with no Dolby. Taped by Ted Gidley.

Transfer: MAC > Nakamichi DR-8 (no Dolby) > Audiophile 2469 >
Soundforge > CD-Wave > TLH > FLAC, July 2008 by Andrew F.

Notes:
- Disc break is seamless.
- Patch from ShnID-10537 covers tape-flip, Space 3:37 > 3:43.
- Alternate disc burn: overburn Set Two plus Encore to 80:26.

    length     expanded size    cdr  WAVE problems  fmt   ratio  filename
     1:06.45       11748284 B   ---   --   ---xx   flac  0.5315  gd1987-04-10d1t01.flac
    10:04.19      106590332 B   ---   --   ---xx   flac  0.6005  gd1987-04-10d1t02.flac
     9:27.55      100148204 B   ---   --   ---xx   flac  0.5854  gd1987-04-10d1t03.flac
     7:58.04       84328652 B   ---   --   ---xx   flac  0.5752  gd1987-04-10d1t04.flac
     0:29.68        5275580 B   ---   --   ---xx   flac  0.5671  gd1987-04-10d1t05.flac
     2:54.53       30818300 B   ---   --   ---xx   flac  0.6096  gd1987-04-10d1t06.flac
     5:48.37       61474268 B   ---   --   ---xx   flac  0.5939  gd1987-04-10d1t07.flac
     4:52.52       51631148 B   ---   --   ---xx   flac  0.5989  gd1987-04-10d1t08.flac
     6:17.04       66512252 B   ---   --   ---xx   flac  0.5986  gd1987-04-10d1t09.flac
     3:28.00       36691244 B   ---   --   ---xx   flac  0.6037  gd1987-04-10d1t10.flac
     0:44.05        7773404 B   ---   --   ---xx   flac  0.4963  gd1987-04-10d1t11.flac
     6:02.42       63955628 B   ---   --   ---xx   flac  0.5756  gd1987-04-10d1t12.flac
     7:47.30       82449404 B   ---   --   ---xx   flac  0.5711  gd1987-04-10d1t13.flac
     0:34.07        6014108 B   ---   --   ---xx   flac  0.5358  gd1987-04-10d2t01.flac
     5:03.46       53557436 B   ---   --   ---xx   flac  0.5823  gd1987-04-10d2t02.flac
    11:01.34      116680412 B   ---   --   ---xx   flac  0.5727  gd1987-04-10d2t03.flac
    11:21.41      120224876 B   ---   --   ---xx   flac  0.5471  gd1987-04-10d2t04.flac
     7:24.12       78349868 B   ---   --   ---xx   flac  0.5347  gd1987-04-10d2t05.flac
     5:40.25       60034844 B   ---   --   ---xx   flac  0.5758  gd1987-04-10d2t06.flac
     8:26.56       89390156 B   ---   --   ---xx   flac  0.5655  gd1987-04-10d2t07.flac
     3:32.04       37406252 B   ---   --   ---xx   flac  0.5934  gd1987-04-10d2t08.flac
     5:43.28       60571100 B   ---   --   ---xx   flac  0.5831  gd1987-04-10d2t09.flac
     7:05.11       74995916 B   ---   --   ---xx   flac  0.5654  gd1987-04-10d2t10.flac
   132:54.03     1406621668 B                            0.5760  (23 files)

No errors occured.
Show Checksums
ffp
gd1987-04-10d1t01.flac:99a3d4501e3a4f9d1ad4bfc1c011babd
gd1987-04-10d1t02.flac:0f3533394bfea1d405ff631f74650c62
gd1987-04-10d1t03.flac:d7ba69a4bbafa307f833b0337cd4081b
gd1987-04-10d1t04.flac:9c8554f3fbce25f595a5d9222e9b2094
gd1987-04-10d1t05.flac:32bcd2d086589d25e5708aa3ab433f61
gd1987-04-10d1t06.flac:84c5b8c355d4decadc71b65b988b09a7
gd1987-04-10d1t07.flac:88d76361e219119ee64119dfd90aa6fc
gd1987-04-10d1t08.flac:39573119d5cf7739288940b2b4c11958
gd1987-04-10d1t09.flac:e0101ae9806c7934397c79877e68a2a8
gd1987-04-10d1t10.flac:2d61ee2b698f1f258a12fe41a8d407a3
gd1987-04-10d1t11.flac:8cb7c79bfbb83970d1cbe48e87c949d5
gd1987-04-10d1t12.flac:c6cf9947e341778e296e56dc86cc7cd2
gd1987-04-10d1t13.flac:7a40626d0e25d521b497d76257248dad
gd1987-04-10d2t01.flac:05f1aee3663953c45e4aa880747f7523
gd1987-04-10d2t02.flac:40a58886a54a98c81a7b786f2a1736d1
gd1987-04-10d2t03.flac:ca6ae7c8a1bca8ff0d89cfab3cb80bb9
gd1987-04-10d2t04.flac:88f77dc3e39eced311d965121bfd25f8
gd1987-04-10d2t05.flac:ab7134663721a18e4cf47cf77d9fcaa4
gd1987-04-10d2t06.flac:74597645463833857c9337b62c158512
gd1987-04-10d2t07.flac:153770a8b86fd9d3fd05004750f8634d
gd1987-04-10d2t08.flac:d1291d84f8c43a867ffc8ee2a77fe447
gd1987-04-10d2t09.flac:31144a817a7f90f5eb61f50e9397cb95
gd1987-04-10d2t10.flac:cb6227fc356771551e6de590e6067a20
flac-md5
c71fdc0a8ee00f1d99a3e70416838c91 *gd1987-04-10d1t01.flac
c23cd41611337225b2b401295ef24a5b *gd1987-04-10d1t02.flac
daa07c6f230694de56013b13b3e26181 *gd1987-04-10d1t03.flac
7ac860f4cfaf2edf977b1906298ef324 *gd1987-04-10d1t04.flac
e7d473bbc5660d2874b3dd006f48db4f *gd1987-04-10d1t05.flac
196f69d96e0b5fff84e4902af0f633d2 *gd1987-04-10d1t06.flac
fd23884067ed66c4dd0fcfa2ab892d3e *gd1987-04-10d1t07.flac
d46a78555f210995c208d4a7250df5fc *gd1987-04-10d1t08.flac
3ad8be9e7f5079115daf3c5ff12207e4 *gd1987-04-10d1t09.flac
b3cee94b74a5ab89068e81a73d0f1d2e *gd1987-04-10d1t10.flac
94c501f582c10df93b6b5bbe5645e79c *gd1987-04-10d1t11.flac
8eb697b0ed7eebcb72da5cb6d5a1e2ae *gd1987-04-10d1t12.flac
ff922d63396a027164f4205a7b389c0b *gd1987-04-10d1t13.flac
e4a87f71b42db9f5beec16fbeafe280b *gd1987-04-10d2t01.flac
853bd2c923fb670902d5d13f06999e43 *gd1987-04-10d2t02.flac
42e4888c2d3dc8901341115e247c2c09 *gd1987-04-10d2t03.flac
e09e3efd14293f319589bc66e79ee276 *gd1987-04-10d2t04.flac
3d96aec4292af2c60fee4f0a4388dffc *gd1987-04-10d2t05.flac
163a8cd1c57127bd5c0828fd0c87903e *gd1987-04-10d2t06.flac
0be99b7c682daaf2a4cb003fa7f4654a *gd1987-04-10d2t07.flac
8ceadab8b41899408f33eb3ff3a8b805 *gd1987-04-10d2t08.flac
1e429434af31adf76528055d81d3399a *gd1987-04-10d2t09.flac
291a9c7fd56b3bc91181593df5e3380c *gd1987-04-10d2t10.flac

Comments
Add Comment
Other Sources (comments)
Schoeps CMC-441 Hyper... (0) Source: Audience Cassette... (1) flac16; Source: SBD... (0) flac16; Recorded by... (1) flac16; Source: 2... (0) flac16; Recording... (0) flac24; Recording... (0) flac16; Recording... (0)
Date User Comment