Browse Collections Artists Sources   Search Dates

Add Show    List Management    Help


Gov't Mule 05/26/07
Washington & Lee University, Lexington, VA
Comments Add Comment    Source Collectors    Add to Collection    Add to Want List    History
Source # 93398 Other Sources
Entered by
Checksums ffp
Disc Counts 0 / 0
Media Size
Date Circulated
Date Added
05/30/07
07/28/2008
Source Summary Source: B&K4022(ortf)>V3(line out)>744T
Location: fob/dfc, 25' from stage
Transfer: 744T>soundforge 7.0 (fades/resampling/dithering)>cd wave>flac 
Source Information - Download Text | Download Zip
Gov't Mule
May 26, 2007
Student Activities Pavilion
Washington & Lee University
Lexington, Va

**16 bit source**

Source: B&K4022(ortf)>V3(line out)>744T
Location: fob/dfc, 25' from stage
Transfer: 744T>soundforge 7.0 (fades/resampling/dithering)>cd wave>flac
Taped & transferred by Craig Davis

CD1/Set 1:
01 Intro/tuning
02 32/20 Blues
03 Rocking Horse
04 Slow Happy Boys
05 She Said, She Said>
06 Tomorrow Never Knows
07 Lay Your Burden Down
08 About To Rage
09 Unring The Bell*
10 Blind Man In The Dark**

CD2/ Set 2:
01 Soulshine
02 Intro>The Shape I'm In>
03 Low Spark Of High Heeled Boys
04 What Is Hip?>
05 Drums>
06 Child Of The Earth
07 A Million Miles From Yesterday

CD3/Set 2 (cont.):
01 Bad Little Doggie
02 Brand New Angel
Encore:
03 Don't Step On The Grass Sam

Notes:
*Shakedown Street & Get Up, Stand Up Teases
**Shenandoah Tease



    length     expanded size   cdr  WAVE problems filename
     1:25.44       15097532    ---   --   ---xx   Mule2007-05-26d1t01.flac
     6:29.30       68690204    ---   --   ---xx   Mule2007-05-26d1t02.flac
     8:57.02       94731548    ---   --   ---xx   Mule2007-05-26d1t03.flac
     6:03.62       64179068    ---   --   ---xx   Mule2007-05-26d1t04.flac
     4:10.38       44189420    ---   --   ---xx   Mule2007-05-26d1t05.flac
     9:16.23       98132540    ---   --   ---xx   Mule2007-05-26d1t06.flac
     5:32.50       58682444    ---   --   ---xx   Mule2007-05-26d1t07.flac
    12:37.50      133652444    ---   --   ---xx   Mule2007-05-26d1t08.flac
     9:52.49      104544092    ---   --   ---xx   Mule2007-05-26d1t09.flac
    12:00.32      127083308    ---   --   ---xx   Mule2007-05-26d1t10.flac
     7:18.28       77329100    ---   --   ---xx   Mule2007-05-26d2t01.flac
     7:17.71       77253836    ---   --   ---xx   Mule2007-05-26d2t02.flac
    13:16.54      140541452    ---   --   ---xx   Mule2007-05-26d2t03.flac
    10:30.03      111139100    ---   --   ---xx   Mule2007-05-26d2t04.flac
    11:23.25      120540044    ---   --   ---xx   Mule2007-05-26d2t05.flac
     7:49.35       82813964    ---   --   ---xx   Mule2007-05-26d2t06.flac
     5:08.68       54491180    ---   --   ---xx   Mule2007-05-26d2t07.flac
     3:43.67       39494828    ---   --   ---xx   Mule2007-05-26d3t01.flac
    10:34.60      111978764    ---   --   ---xx   Mule2007-05-26d3t02.flac
     7:25.08       78516860    ---   --   ---xx   Mule2007-05-26d3t03.flac
   160:54.49     1703081728 B                     (totals for 20 files, 0.5336 overall compression ratio)
Show Checksums
ffp
Mule2007-05-26d1t01.flac:09c54dde618be2afc820577e50156388
Mule2007-05-26d1t02.flac:4eadc2a83b7bfef31e79dc493499e039
Mule2007-05-26d1t03.flac:4d1df0e489339aeb65f9b03b8c18647e
Mule2007-05-26d1t04.flac:3dbb3c22ae0a8924547231bd016207f7
Mule2007-05-26d1t05.flac:11b7a31687a82eeddd264a2cb529c4ed
Mule2007-05-26d1t06.flac:bd8fb34ba888e5849aa76975524495f3
Mule2007-05-26d1t07.flac:cc59b1124b786a86464ae49c521a222f
Mule2007-05-26d1t08.flac:5a9607673531b9a9200593372f12cac1
Mule2007-05-26d1t09.flac:5224bf4652e93c3b439b6f78bf04d1b9
Mule2007-05-26d1t10.flac:b2102bcffe03252f11f7ed4ff241ac6d
Mule2007-05-26d2t01.flac:d115a602252255b274d0bdb1483cc99f
Mule2007-05-26d2t02.flac:2303c620a202e90f58e4487d4f4d2e73
Mule2007-05-26d2t03.flac:4dad699aca4a2fe9aaa79b06f3bf8103
Mule2007-05-26d2t04.flac:3c6fab6d14b6f7ee1ff99a52c4ce6cde
Mule2007-05-26d2t05.flac:0a0838f017e88c4c6164fcdde6fd5da8
Mule2007-05-26d2t06.flac:768684843fa78b7fb425e55985cd91fe
Mule2007-05-26d2t07.flac:9612940bf6791507227fbc1560192b7a
Mule2007-05-26d3t01.flac:b2f75ba621de221230d26b57cfb8b126
Mule2007-05-26d3t02.flac:38cb67021cbba8a6aada41c7ca5bf7b5
Mule2007-05-26d3t03.flac:7af4a52e1fc5e50c71f0a6c1ae20fca4

Comments
Add Comment
Other Sources (comments)
Neumann U89> 744T (line... (1)
Date User Comment