Browse Collections Artists Sources   Search Dates

Add Show    List Management    Help


Grateful Dead 05/15/80
Nassau Coliseum, Uniondale, NY
Comments Add Comment    Source Collectors    Add to Collection    Add to Want List    History
Source # 93426 Other Sources
Entered by Matt Vernon
Checksums flac-md5 , ffp
Disc Counts 2 / 2
Media Size
Date Circulated
Date Added

07/28/2008
Source Summary flac16; Recording Info:SBD -> Cassette Master -> Dat (48k); Transfer Info:Dat (Sony R500) -> VXPocket v2 -> Samplitude Professional v10.1 -> FLAC; All Transfers and Mastering By Charlie Miller 
  Archive
Source Information - Download Text | Download Zip
Grateful Dead - May 15, 1980
Nassau Coliseum - Uniondale, NY

Recording Info:
SBD -> Cassette Master -> Dat (48k)

Transfer Info:
Dat (Sony R500) -> VXPocket v2 -> Samplitude Professional v10.1 -> FLAC
(2 Discs Audio / 2 Discs FLAC)

All Transfers and Mastering By Charlie Miller
[email protected]
July 28, 2008

Patch Info:
Unknown Mics -> Cassette Master -> Dat -> CD (shnid=34721) supplies:
Cassidy (4:20 - end of track)
Althea (0:00 - 0:05)
Lost Sailor (1:42 - 4:36)

Notes:
-- Disc change is seamless
-- Thanks to Rob Eaton for lending me his Dats
-- This is from Betty's recording mix
-- There are numerous mix changes throughout the show

Set 1:
d1t01 - Jack Straw ->
d1t02 - Franklin's Tower
d1t03 - Cassidy
d1t04 - They Love Each Other
d1t05 - Lazy Lightnin' ->
d1t06 - Supplication
d1t07 - Peggy-O
d1t08 - Far From Me
d1t09 - Feel Like A Stranger ->
d1t10 - Deal

Set 2:
d1t11 - Althea
d2t01 - Lost Sailor ->
d2t02 - Saint Of Circumstance ->
d2t03 - Terrapin Station ->
d2t04 - Playing In The Band ->
d2t05 - Uncle John's Band ->
d2t06 - Drums ->
d2t07 - Space ->
d2t08 - Not Fade Away ->
d2t09 - Goin' Down The Road Feeling Bad ->
d2t10 - Good Lovin'

Encore:
d2t11 - Alabama Getaway


SHNTOOL OUTPUT:
    length     expanded size   cdr  WAVE problems filename
     6:12.62       65766668    ---   --   -----   gd80-05-15d1t01.wav
    13:51.04      146597852    ---   --   -----   gd80-05-15d1t02.wav
     4:50.53       51280700    ---   --   -----   gd80-05-15d1t03.wav
     7:34.14       80118572    ---   --   -----   gd80-05-15d1t04.wav
     3:41.63       39132620    ---   --   -----   gd80-05-15d1t05.wav
     6:15.06       66164156    ---   --   -----   gd80-05-15d1t06.wav
     7:20.12       77644268    ---   --   -----   gd80-05-15d1t07.wav
     4:26.24       46978892    ---   --   -----   gd80-05-15d1t08.wav
     8:51.20       93715484    ---   --   -----   gd80-05-15d1t09.wav
     5:14.36       55474316    ---   --   -----   gd80-05-15d1t10.wav
     8:28.02       89615948    ---   --   -----   gd80-05-15d1t11.wav
     6:10.66       65423276    ---   --   -----   gd80-05-15d2t01.wav
     6:06.10       64585964    ---   --   -----   gd80-05-15d2t02.wav
    12:27.09      131792012    ---   --   -----   gd80-05-15d2t03.wav
     8:04.05       85389404    ---   --   -----   gd80-05-15d2t04.wav
     8:25.28       89147900    ---   --   -----   gd80-05-15d2t05.wav
     7:06.42       75245228    ---   --   -----   gd80-05-15d2t06.wav
     2:22.52       25171148    ---   --   -----   gd80-05-15d2t07.wav
     5:18.06       56109356    ---   --   -----   gd80-05-15d2t08.wav
     6:44.64       71416172    ---   --   -----   gd80-05-15d2t09.wav
     7:27.23       78904940    ---   --   -----   gd80-05-15d2t10.wav
     4:44.09       50118812    ---   --   -----   gd80-05-15d2t11.wav
   151:43.10     1605793688 B                     (totals for 22 files)
Show Checksums
flac-md5
c9adcadd43e63013c7e5b5c49bae7907 *gd80-05-15d1t01.flac
f0e856be073ee86af9ad36fc9acf2e28 *gd80-05-15d1t02.flac
7406b9cf80c9783b6a4c906560fb3b18 *gd80-05-15d1t03.flac
f626951d2357c93d7adef5076be49cb8 *gd80-05-15d1t04.flac
0521de107c318d74154bff3b87f7d3e5 *gd80-05-15d1t05.flac
ffb27210bd73d16d70be0c3aeba3376c *gd80-05-15d1t06.flac
ebf7d01c9c34bac745012b0db0208754 *gd80-05-15d1t07.flac
84c328761f88e9c922094ad4e42de62f *gd80-05-15d1t08.flac
08ed3ded1d2b4b6af0ec58124986f823 *gd80-05-15d1t09.flac
90411f860b744d4b9e11f7bdce5753df *gd80-05-15d1t10.flac
e76e2b4fcb63520d4e083ac063e75faa *gd80-05-15d1t11.flac
c1643a65ca4f52685d2fff5c177821c0 *gd80-05-15d2t01.flac
e72238127ebbb436f4a986eb8035dd75 *gd80-05-15d2t02.flac
0bbffe88136877d87bb0fa0ec954f244 *gd80-05-15d2t03.flac
7e8634a5d304913478d81e9666511579 *gd80-05-15d2t04.flac
b6faef3c80ad7609cccb014fdf2a0012 *gd80-05-15d2t05.flac
0dd4880fd9c43b1149e2dc912004b243 *gd80-05-15d2t06.flac
3442af6d797eba5c631b98c82b85e030 *gd80-05-15d2t07.flac
6cde9a8de968a69bb6bef44af4bdf596 *gd80-05-15d2t08.flac
ed9bcec02478066ab1b65a04360f2292 *gd80-05-15d2t09.flac
3ccfeb52f13766bcb24f153468623242 *gd80-05-15d2t10.flac
7d082d330f277bbc89257a4ed9f29977 *gd80-05-15d2t11.flac
ffp
gd80-05-15d1t01.flac:53bf5a560cccabe037bba315d6c40f47
gd80-05-15d1t02.flac:1e632730bd33a1bfde1401e851ccc7ec
gd80-05-15d1t03.flac:c5fc0a00a3065d7071b00b8606a5efc6
gd80-05-15d1t04.flac:fdcefa0dceda88e82176b20d2fce6755
gd80-05-15d1t05.flac:7538e98083724a11fa716d892a5d524b
gd80-05-15d1t06.flac:86770aaaeebd186f9296bf7b03ef230d
gd80-05-15d1t07.flac:28df510b79a20fa623a691ef917da457
gd80-05-15d1t08.flac:e23837f6de2112640442726bbdf3446e
gd80-05-15d1t09.flac:399a7db8de654b6ca83eff972ef1579a
gd80-05-15d1t10.flac:a3f0e6539366f39c1ef4f4e8b21108ed
gd80-05-15d1t11.flac:07c50d3bdcfb218e685e617af28201c2
gd80-05-15d2t01.flac:00bd3aeee3d0d873dc9808d8bc88cdfe
gd80-05-15d2t02.flac:02e9349b8f89cb9565c4f2faee8df906
gd80-05-15d2t03.flac:fa229eb7d2d813c77d8068346bb4caf4
gd80-05-15d2t04.flac:a39a910efb09136e38fd52698378cd19
gd80-05-15d2t05.flac:9912da121c0ddb4d5870dfea029a8d47
gd80-05-15d2t06.flac:c2f1d549262cbed520dd6074b2e84f00
gd80-05-15d2t07.flac:4d7e7be7b7d6337874f8e30985ef69f2
gd80-05-15d2t08.flac:d682597e56e5dc593b4ef92574408aa5
gd80-05-15d2t09.flac:47af2b10f8b7b3c283b16fbf1fe1935d
gd80-05-15d2t10.flac:6166423edc6c43907b62a14c217f82ff
gd80-05-15d2t11.flac:ead4af9776e9d747926235afa5263dfe

Comments
Add Comment
Other Sources (comments)
AUD> MC> DAT> CDR; via Alan... (0) flac16; AUD Source:... (0) flac16;Analog... (0) flac24;Analog... (1) flac24; Recording by... (0) flac16; 2 Source... (0)
Date User Comment