Browse Collections Artists Sources   Search Dates

Add Show    List Management    Help


Drive-By Truckers 02/25/08
The Slowdown, Omaha, NE
Comments Add Comment    Source Collectors    Add to Collection    Add to Want List    History
Source # 93643 Other Sources
Entered by Kyle pike
Checksums ffp
Disc Counts 0 / 0
Media Size
Date Circulated
Date Added
03/07/08
07/30/2008
Source Summary [16 Bit] AKG C 414B-XLS/ST > V3 > Tascam HD-P2 (Mike Darby) 
Source Information - Download Text | Download Zip
Drive By Truckers
Slowdown
Omaha, NE
February 25, 2008

AKG C 414B-XLS/ST (M-S/1ft LOC/@11ft/35ft away) >
Audio Magic Hyperconductors >  
Lunatec V3 ([email protected]/48) SPDIF >
Tascam HD-P2 (Kingston Elite Pro 45X 4Gb CF) > HDD >
Audacity (M-S mix) > Amadeus Pro (tracking/fades/FLAC8) > .wav >
R8Brain (dither&resample) > .flac16 (6)

note the dB levels I used to do the M-S mix (+ or -):
- Mid Left: -6 / Mid Right -3 / Side Left -6 / Side Right -6

Recorded, transferred, and flac'd by Mike Darby
dithered, resampled, re-flac'd by Dustin Hassenstab

Disc 1
01. [04:25] Two Daughters and Beautiful Wife
02. [04:57] Daddy Needs a Drink
03. [03:50] Perfect Timing
04. [07:02] Puttin' People on the Moon
05. [03:26] Three Dimes Down
06. [04:30] The Righteous Path
07. [05:47] Where The Devil Don't Stay
08. [03:40] I'm Sorry Huston
09. [04:33] Sink Hole
10. [06:32] The Living Bubba
11. [04:51] A Ghost to Most
12. [07:54] The Opening Act
13. [04:44] Home Field Advantage

Disc 2
01. [06:06] Story of...
02. [04:39] 18 Wheels Of Love
03. [03:37] Gravity's Gone
04. [05:46] Hell No I Ain't Happy
05. [05:27] Lookout Mountain
06. [04:48] crowd > Patterson speaks
Encore:
07. [05:56] Marry Me
08. [05:35] Zip City
09. [08:34] Buttholeville > State Trooper > Buttholeville*
10. [06:30] People Who Died*

* with Craig Lieske on guitar


    length     expanded size   cdr  WAVE problems filename
     4:25.55       46875404    ---   --   ---xx   dbt2008-02-25.akg414.d1t01.flac
     4:57.16       52428476    ---   --   ---xx   dbt2008-02-25.akg414.d1t02.flac
     3:50.35       40654364    ---   --   ---xx   dbt2008-02-25.akg414.d1t03.flac
     7:02.74       74614892    ---   --   ---xx   dbt2008-02-25.akg414.d1t04.flac
     3:26.72       36507788    ---   --   ---xx   dbt2008-02-25.akg414.d1t05.flac
     4:30.11       47653916    ---   --   ---xx   dbt2008-02-25.akg414.d1t06.flac
     5:47.11       61236716    ---   --   ---xx   dbt2008-02-25.akg414.d1t07.flac
     3:40.17       38848028    ---   --   ---xx   dbt2008-02-25.akg414.d1t08.flac
     4:33.56       48288956    ---   --   ---xx   dbt2008-02-25.akg414.d1t09.flac
     6:32.43       69249980    ---   --   ---xx   dbt2008-02-25.akg414.d1t10.flac
     4:51.48       51445340    ---   --   ---xx   dbt2008-02-25.akg414.d1t11.flac
     7:54.66       83768876    ---   --   ---xx   dbt2008-02-25.akg414.d1t12.flac
     4:44.61       50241116    ---   --   ---xx   dbt2008-02-25.akg414.d1t13.flac
     6:06.42       64661228    ---   --   ---xx   dbt2008-02-25.akg414.d2t01.flac
     4:39.57       49349708    ---   --   ---xx   dbt2008-02-25.akg414.d2t02.flac
     3:37.28       38344700    ---   --   ---xx   dbt2008-02-25.akg414.d2t03.flac
     5:46.71       61201436    ---   --   ---xx   dbt2008-02-25.akg414.d2t04.flac
     5:27.64       57833372    ---   --   ---xx   dbt2008-02-25.akg414.d2t05.flac
     4:48.48       50916140    ---   --   ---xx   dbt2008-02-25.akg414.d2t06.flac
     5:56.48       62911340    ---   --   ---xx   dbt2008-02-25.akg414.d2t07.flac
     5:35.20       59141084    ---   --   ---xx   dbt2008-02-25.akg414.d2t08.flac
     8:34.21       90719036    ---   --   ---xx   dbt2008-02-25.akg414.d2t09.flac
     6:31.01       68974796    ---   --   ---xx   dbt2008-02-25.akg414.d2t10.flac
   123:22.65     1305866692 B                     (totals for 23 files, 0.5470 overall compression ratio)


Show Checksums
ffp
dbt2008-02-25.akg414.d1t01.flac:c062b508e3e75df867d5865b26d74c66
dbt2008-02-25.akg414.d1t02.flac:76d7eefe34a938c00a8b79465fcb5b01
dbt2008-02-25.akg414.d1t03.flac:9f4b49ed60cd6280d44b097d3a3fc3e9
dbt2008-02-25.akg414.d1t04.flac:46dd79f39e092eec03882e2389199937
dbt2008-02-25.akg414.d1t05.flac:0f2b510e5d0f441d124aa0ec7b936d05
dbt2008-02-25.akg414.d1t06.flac:cb6f7d0b022ea0211b06b43255c6dabb
dbt2008-02-25.akg414.d1t07.flac:23a2a38215d741f9a3c8d2ec791b2cea
dbt2008-02-25.akg414.d1t08.flac:9d962ac1b5b62d8bd62605b1b914e2a6
dbt2008-02-25.akg414.d1t09.flac:a6367ebcbbc5c850d082707ebc42d93c
dbt2008-02-25.akg414.d1t10.flac:814a0b2185a1da7e8d418cf2a65e5d74
dbt2008-02-25.akg414.d1t11.flac:5917437bdcb3801eba766a3449967ad2
dbt2008-02-25.akg414.d1t12.flac:c4a3d6d4d9de09991e335e9e780c7d99
dbt2008-02-25.akg414.d1t13.flac:d99cacc72677969de6cd5b4b224d9d6e
dbt2008-02-25.akg414.d2t01.flac:58b842a44bb393d4ef3245beea92bd64
dbt2008-02-25.akg414.d2t02.flac:66659ab1f8bae12248803454e19f4f34
dbt2008-02-25.akg414.d2t03.flac:3e2044d2fc8095828b64da6007135ad8
dbt2008-02-25.akg414.d2t04.flac:7ba15dd160b16362dca33b7ab70f655f
dbt2008-02-25.akg414.d2t05.flac:682a319466e9d7a64b012d038848a2c1
dbt2008-02-25.akg414.d2t06.flac:13ba6f43f0089728e067fac17542f5a4
dbt2008-02-25.akg414.d2t07.flac:9497aa9355ffe3c6ca70a2a703a09328
dbt2008-02-25.akg414.d2t08.flac:811399d3fa7b8705e1d53f22cdb682b4
dbt2008-02-25.akg414.d2t09.flac:720e17fb938f864164afac13af2866ff
dbt2008-02-25.akg414.d2t10.flac:46f396b03fe9c1ef6908c0481be3c81a

Comments
Add Comment
Other Sources (comments)
[16 bit] Neumann ak40 > lc3... (0) [24bit] Neumann ak40 > lc3... (0) 24bit AKG C... (0)
Date User Comment