Browse Collections Artists Sources   Search Dates

Add Show    List Management    Help


Grateful Dead 09/04/80
Providence Civic Center, Providence, RI
Comments Add Comment    Source Collectors    Add to Collection    Add to Want List    History
Source # 93752 Other Sources
Entered by Matt Vernon
Checksums flac-md5 , ffp
Disc Counts 2 / 3
Media Size
Date Circulated
Date Added
08/02/2008
08/01/2008
Source Summary flac16; Recording Info: (FOB) Nakamichi 700 -> Master Cassette (Sony D5/Maxell UDXL-I/Dolby B); Transfer Info: Master Cassette (Nakamichi DR-1/Dolby B) -> Sound Devices 744T (24bit/88.2k) -> Samplitude Professional v10.1 -> FLAC/16; Recorded By Steve Rolfe; All Transfers and Mastering By Charlie Miller 
  Archive
Source Information - Download Text | Download Zip
Grateful Dead - September 4, 1980
Civic Center - Providence, RI

Recording Info:
(FOB) Nakamichi 700 -> Master Cassette (Sony D5/Maxell UDXL-I/Dolby B)

Transfer Info:
Master Cassette (Nakamichi DR-1/Dolby B) -> Sound Devices 744T (24bit/88.2k) ->
Samplitude Professional v10.1 -> FLAC/16
(3 Discs Audio / 2 Discs FLAC)

All Transfers and Mastering By Charlie Miller
[email protected]
August 1, 2008

Patch Info:
(FOB) Sony ECM-280 -> Master Cassette -> CD (shnid=24829) supplies:
Space (0:24 - 0:32)
Goin' Down The Road Feeling Bad (5:46 - 5:57)

Notes:
-- Set 2 is seamless
-- Thanks to Steve Rolfe for lending me his masters

Set 1:
d1t01 - Tuning
d1t02 - Feel Like A Stranger
d1t03 - Peggy-O
d1t04 - Cassidy
d1t05 - Dire Wolf
d1t06 - New Minglewood Blues
d1t07 - Althea
d1t08 - Looks Like Rain
d1t09 - Far From Me
d1t10 - China Cat Sunflower ->
d1t11 - I Know You Rider

Set 2:
d2t01 - Tuning
d2t02 - Samson And Delilah
d2t03 - Ramble On Rose
d2t04 - Supplication Jam ->
d2t05 - Estimated Prophet ->
d2t06 - Eyes Of The World ->
d2t07 - Drums ->
d3t01 - Space ->
d3t02 - The Other One ->
d3t03 - Wharf Rat ->
d3t04 - Goin' Down The Road Feeling Bad ->
d3t05 - Good Lovin'

Encore:
d3t06 - U.S. Blues


SHNTOOL OUTPUT:
    length     expanded size   cdr  WAVE problems filename
     2:09.45       22861484    ---   --   -----   gd80-09-04d1t01.wav
     7:35.26       80323196    ---   --   -----   gd80-09-04d1t02.wav
     6:07.63       64887020    ---   --   -----   gd80-09-04d1t03.wav
     5:04.44       53729132    ---   --   -----   gd80-09-04d1t04.wav
     4:18.32       45586508    ---   --   -----   gd80-09-04d1t05.wav
     7:07.13       75353420    ---   --   -----   gd80-09-04d1t06.wav
     8:47.28       93028700    ---   --   -----   gd80-09-04d1t07.wav
     9:42.04      102674252    ---   --   -----   gd80-09-04d1t08.wav
     4:49.66       51134876    ---   --   -----   gd80-09-04d1t09.wav
     5:29.50       58153244    ---   --   -----   gd80-09-04d1t10.wav
     6:14.42       66072428    ---   --   -----   gd80-09-04d1t11.wav
     0:49.05        8655404    ---   --   -----   gd80-09-04d2t01.wav
     7:06.72       75315788    ---   --   -----   gd80-09-04d2t02.wav
     7:48.48       82668140    ---   --   -----   gd80-09-04d2t03.wav
     4:43.38       50010620    ---   --   -----   gd80-09-04d2t04.wav
    10:14.66      108464876    ---   --   -----   gd80-09-04d2t05.wav
     7:46.15       82237724    ---   --   -----   gd80-09-04d2t06.wav
    11:30.55      121845404    ---   --   -----   gd80-09-04d2t07.wav
     4:00.74       42510092    ---   --   -----   gd80-09-04d3t01.wav
    10:12.02      107961548    ---   --   -----   gd80-09-04d3t02.wav
     9:35.60      101571164    ---   --   -----   gd80-09-04d3t03.wav
     6:39.64       70534172    ---   --   -----   gd80-09-04d3t04.wav
     8:26.47       89368988    ---   --   -----   gd80-09-04d3t05.wav
     5:15.06       55580156    ---   --   -----   gd80-09-04d3t06.wav
   161:36.65     1710528336 B                     (totals for 24 files)
Show Checksums
flac-md5
5d3dea677b3e1b2b27285d908f3e4905 *gd80-09-04d1t01.flac
b89c7dd7049d57301e2661cadee1bb3e *gd80-09-04d1t02.flac
17ac2092ba0a5cb4b3a7616df7d4d1d1 *gd80-09-04d1t03.flac
a54d13dc5f52d81ccdb49e0adfa46afb *gd80-09-04d1t04.flac
cbee6cbd75ec966c93de148760bbc9a5 *gd80-09-04d1t05.flac
c91d7c7e7d4ce01ccb0f650df0f56c4c *gd80-09-04d1t06.flac
197ac692c833030ec4097dfa30332568 *gd80-09-04d1t07.flac
292df87a041a8d02a03af7b1038b207b *gd80-09-04d1t08.flac
60848805e466755fc2fb01ffdd10c6a4 *gd80-09-04d1t09.flac
688aba21b6f16521dfb847f6eda5db93 *gd80-09-04d1t10.flac
b004b7285dc86b555d660eb87d52ef62 *gd80-09-04d1t11.flac
7694c696188167df2240d435fba59ce4 *gd80-09-04d2t01.flac
9dee5400d08eda158ef5d5132ad94cb5 *gd80-09-04d2t02.flac
61b22feb95f30ca75a89f0a97eaa96b8 *gd80-09-04d2t03.flac
717d69c3cb5158f56f056e250e257e2a *gd80-09-04d2t04.flac
4253f3d1f0fdb68630036919e9d85b68 *gd80-09-04d2t05.flac
562395d8c6fd2580687af31665ec0417 *gd80-09-04d2t06.flac
a39f95fdfb17f7388b0a1f4aa3e78bcc *gd80-09-04d2t07.flac
420d9146034e8321478088a734f45a93 *gd80-09-04d3t01.flac
1c804a57b5dc80e17ca824cf9cdb7f4d *gd80-09-04d3t02.flac
47e860946c2e45b6a005bdae446634aa *gd80-09-04d3t03.flac
5c15e57011c2906a8d8e008afb895b28 *gd80-09-04d3t04.flac
58e7c502bab7af802a0c20a3f70ff282 *gd80-09-04d3t05.flac
546e66763bed192889bb596cc408fb2e *gd80-09-04d3t06.flac
ffp
gd80-09-04d1t01.flac:6e42205d3e304d862232e3f0d72fd504
gd80-09-04d1t02.flac:5baa309cf06e1d2ca6ece4a195d4cd9c
gd80-09-04d1t03.flac:aed873a04660ddeb268d4055627874e9
gd80-09-04d1t04.flac:843a87d5ad1b90e97aebe4a580713d82
gd80-09-04d1t05.flac:9b711fcab7c9647aabd00d8f1216fcc5
gd80-09-04d1t06.flac:7445f29fbfcefe5928bf5e86a8e85862
gd80-09-04d1t07.flac:aa4ba7518347959eae54a93685b5be88
gd80-09-04d1t08.flac:202f1b2b4570bfa46b4429f8da1282ba
gd80-09-04d1t09.flac:747bbad4aa0d8486a0938dede850a327
gd80-09-04d1t10.flac:7081560bd87440e8e81cd006d9875091
gd80-09-04d1t11.flac:f552ba14f2ea65f1b30ab1a02dfcef23
gd80-09-04d2t01.flac:471a3027b337ac78654478fc0c2498a2
gd80-09-04d2t02.flac:45d4e80b20e48057c2019d8cc44dd577
gd80-09-04d2t03.flac:3cf0ed03637856e4e82eff6fbedb7132
gd80-09-04d2t04.flac:27f80607b5a661f8cab096a684efd9ff
gd80-09-04d2t05.flac:971ceaee245649734088c46a0e7c20a6
gd80-09-04d2t06.flac:fee0760144c9ffe629f2ff2afd3a8979
gd80-09-04d2t07.flac:c179a6a6fbeb563ce3ad9c364c73a790
gd80-09-04d3t01.flac:fc8c54d1977198d8aafcc0ea19ec0bbb
gd80-09-04d3t02.flac:83e70aad10e31b9e446f2d4c39d26a6e
gd80-09-04d3t03.flac:f56d6ff74ede44a8e04cae2b252ba0a0
gd80-09-04d3t04.flac:3c20e29a50d96fffa18b04741e13b4df
gd80-09-04d3t05.flac:6431eb27325bb1bd85017c7d9de5ef53
gd80-09-04d3t06.flac:d43494738830103a492f3738397bf176

Comments
Add Comment
Other Sources (comments)
AUD>MC>DAT>SF>CD;... (0) Set 1... (0) Set 2 Soundboard Cassette... (2) Recording by Jim Wise: FOB... (0) flac16; Recording... (0) flac16; Matrix by... (0) flac16; Nakamichi... (0) flac24; FOB AUD: 2x... (2) flac16; FOB AUD: 2x... (2) flac24; Nakamichi... (0) flac24; Recording by... (1)
Date User Comment