Browse Collections Artists Sources   Search Dates Setlists

Add Show    List Management    Forums    Help


Grateful Dead 09/06/80
State Fairgrounds, Lewiston, ME
Comments Add Comment    Source Collectors    Add to Collection    Add to Want List    History
Source # 93782 Other Sources
Entered by Matt Vernon
Checksums ffp , flac-md5
Disc Counts 2 / 3
Media Size
Date Circulated
Date Added
08/02/2008
08/02/2008
Source Summary flac16; Recording Info: (FOB) Nakamichi 700 -> Master Cassette (Sony D5/Maxell UDXL-II); Transfer Info: Master Cassette (Nakamichi DR-1) -> Sound Devices 744T (24bit/88.2k) -> Samplitude Professional v10.1 -> FLAC/16; Recorded By Steve Rolfe; All Transfers and Mastering By Charlie Miller 
  Archive
Source Information - Download Text | Download Zip
Grateful Dead - September 6, 1980
Maine State Fairgrounds - Lewiston, ME

Recording Info:
(FOB) Nakamichi 700 -> Master Cassette (Sony D5/Maxell UDXL-II)

Transfer Info:
Master Cassette (Nakamichi DR-1) -> Sound Devices 744T (24bit/88.2k) ->
Samplitude Professional v10.1 -> FLAC/16
(3 Discs Audio / 2 Discs FLAC)

All Transfers and Mastering By Charlie Miller
charliemiller87@earthlink.net
August 1, 2008

Notes:
-- All disc changes are seamless
-- Thanks to Steve Rolfe for lending me his masters

Set 1:
d1t01 - Tuning
d1t02 - Alabama Getaway ->
d1t03 - Greatest Story Ever Told
d1t04 - Sugaree
d1t05 - Me And My Uncle ->
d1t06 - Mexicali Blues
d1t07 - Tennessee Jed
d1t08 - Feel Like A Stranger
d1t09 - Take A Step Back
d1t10 - Friend Of The Devil
d2t01 - Far From Me ->
d2t02 - Little Red Rooster
d2t03 - China Cat Sunflower ->
d2t04 - I Know You Rider ->
d2t05 - The Promised Land

Set 2:
d2t06 - Tuning
d2t07 - Shakedown Street ->
d2t08 - Lost Sailor ->
d2t09 - Saint Of Circumstance
d2t10 - Althea
d3t01 - Tuning
d3t02 - Playing In The Band ->
d3t03 - Uncle John's Band ->
d3t04 - Drums ->
d3t05 - Space ->
d3t06 - Not Fade Away ->
d3t07 - The Wheel ->
d3t08 - Uncle John's Band ->
d3t09 - Playing In The Band ->
d3t10 - Sugar Magnolia

Encore:
d3t11 - One More Saturday Night ->
d3t12 - Brokedown Palace


SHNTOOL OUTPUT:
    length     expanded size   cdr  WAVE problems filename
     3:42.58       39297260    ---   --   -----   gd80-09-06d1t01.wav
     5:18.59       56234012    ---   --   -----   gd80-09-06d1t02.wav
     5:01.26       53157596    ---   --   -----   gd80-09-06d1t03.wav
    16:22.45      173330684    ---   --   -----   gd80-09-06d1t04.wav
     2:58.38       31488620    ---   --   -----   gd80-09-06d1t05.wav
     5:20.61       56591516    ---   --   -----   gd80-09-06d1t06.wav
     9:57.46      105419036    ---   --   -----   gd80-09-06d1t07.wav
    11:40.30      123550604    ---   --   -----   gd80-09-06d1t08.wav
     0:48.52        8589548    ---   --   -----   gd80-09-06d1t09.wav
    11:00.49      116539292    ---   --   -----   gd80-09-06d1t10.wav
     4:15.43       45083180    ---   --   -----   gd80-09-06d2t01.wav
     9:54.66      104936876    ---   --   -----   gd80-09-06d2t02.wav
     6:04.46       64317836    ---   --   -----   gd80-09-06d2t03.wav
     5:25.21       57379436    ---   --   -----   gd80-09-06d2t04.wav
     4:22.44       46320332    ---   --   -----   gd80-09-06d2t05.wav
     1:23.74       14815292    ---   --   -----   gd80-09-06d2t06.wav
    11:49.63      125215820    ---   --   -----   gd80-09-06d2t07.wav
     6:01.74       63854492    ---   --   -----   gd80-09-06d2t08.wav
     6:42.61       71056316    ---   --   -----   gd80-09-06d2t09.wav
    10:47.61      114274316    ---   --   -----   gd80-09-06d2t10.wav
     2:19.29       24587852    ---   --   -----   gd80-09-06d3t01.wav
     9:41.41      102584876    ---   --   -----   gd80-09-06d3t02.wav
     7:50.04       82917452    ---   --   -----   gd80-09-06d3t03.wav
    13:12.16      139746476    ---   --   -----   gd80-09-06d3t04.wav
     3:40.48       38920940    ---   --   -----   gd80-09-06d3t05.wav
     6:38.63       70355420    ---   --   -----   gd80-09-06d3t06.wav
     5:17.08       55937660    ---   --   -----   gd80-09-06d3t07.wav
     3:16.40       34668524    ---   --   -----   gd80-09-06d3t08.wav
     3:01.33       32006060    ---   --   -----   gd80-09-06d3t09.wav
    10:18.23      109069340    ---   --   -----   gd80-09-06d3t10.wav
     4:41.43       49669580    ---   --   -----   gd80-09-06d3t11.wav
     5:35.07       59110508    ---   --   -----   gd80-09-06d3t12.wav
   214:34.22     2271026752 B                     (totals for 32 files)
Show Checksums
ffp
gd80-09-06d1t01.flac:362fd9f14070f0e9b10ded3c525e3264
gd80-09-06d1t02.flac:a561733a34488ec450d7ce42e04c354b
gd80-09-06d1t03.flac:a54246471ae45da590491fb88027a934
gd80-09-06d1t04.flac:49b0778457ae9ffabb85754e603d3c9b
gd80-09-06d1t05.flac:bc8c8fbfadf65f7cccd781cf8e221736
gd80-09-06d1t06.flac:c25760b3eb2234e79f45c478f88ed49f
gd80-09-06d1t07.flac:3608260b0b5090a6a4df3db57f8655da
gd80-09-06d1t08.flac:11cacc8f0a28668e5f3e92392ccd9af0
gd80-09-06d1t09.flac:a90e9524a83d904bedfeb8d7890dd840
gd80-09-06d1t10.flac:e987a53c84b76301c874c0750b84145d
gd80-09-06d2t01.flac:7af717064f04d725f83cabb265d076d3
gd80-09-06d2t02.flac:1e9f8141df85d43bc7aa71b321f60e51
gd80-09-06d2t03.flac:6ff1aaf5ed063453106881fbae69b4a7
gd80-09-06d2t04.flac:f8e0336edd5ee6ba018710c88e634171
gd80-09-06d2t05.flac:e28ea5f381879ff74c2d432d47f77644
gd80-09-06d2t06.flac:44fe9aa7e582657b979404e9c0459319
gd80-09-06d2t07.flac:75592492b11fe34148949ba4e8ee7cf8
gd80-09-06d2t08.flac:53323d5eff800ef6a5410c17bffb8e25
gd80-09-06d2t09.flac:2becb0134f9ca94582a00ab17f13a62d
gd80-09-06d2t10.flac:0d883dfbce43ad390e01fad2d52d0b39
gd80-09-06d3t01.flac:4beb1b5503da7d995892196acb0f5437
gd80-09-06d3t02.flac:de52dee69a4aae0a816c1a9019a692a3
gd80-09-06d3t03.flac:c8d73851a5eb1389b6c924f2be83d83b
gd80-09-06d3t04.flac:86e79eea50c3bc769f05b75301b71f9c
gd80-09-06d3t05.flac:fb517f7e946b7a0ea980d4de9444a2f5
gd80-09-06d3t06.flac:c32962c4392faa8d1101d36822781c28
gd80-09-06d3t07.flac:3e8cbd2707664689c88d63fd6f943fea
gd80-09-06d3t08.flac:104a75cc01f8bb973b7e697aa201700e
gd80-09-06d3t09.flac:9413b77ea2292c0a5617f18b7cd93090
gd80-09-06d3t10.flac:f6ce83c7240cf07cd4b611f5d1871b6d
gd80-09-06d3t11.flac:ae26960295dd309f9a0baf9ec9bf27ff
gd80-09-06d3t12.flac:6e7b6f8c97acd019b68cc44492eb36e7
flac-md5
b62d504ed594de191af061e98ac8492f *gd80-09-06d1t01.flac
578745d0e47a3d839bbff6b751e278a0 *gd80-09-06d1t02.flac
3880df2c30f7f70bdbdf2f6d92e87b82 *gd80-09-06d1t03.flac
85d917cd75c814938c44e84b58a3a3a0 *gd80-09-06d1t04.flac
acc26df5d2733a86e02bca89b8b9d4ef *gd80-09-06d1t05.flac
af70b63629d542db7514dd63e2d52c9c *gd80-09-06d1t06.flac
1e98c3dda7e6c340ab2dd64ee60bc391 *gd80-09-06d1t07.flac
f0444197f2f6ef757cb79757f4d0fc5d *gd80-09-06d1t08.flac
0e773ffee3d2763b87aaa29c0476751e *gd80-09-06d1t09.flac
e0e4aea8e4f12d09459033bc4b0ae571 *gd80-09-06d1t10.flac
81e07ea4554fa0a557ee39a9f2a81952 *gd80-09-06d2t01.flac
90f2a156f40b029d6d79e55181a70827 *gd80-09-06d2t02.flac
19ede33e55d6d63cf0ef30a2ee3d987f *gd80-09-06d2t03.flac
229e5486afc64147ef9ad46bdcdcf5b2 *gd80-09-06d2t04.flac
8b56c7cc825778c06c48a65186e48757 *gd80-09-06d2t05.flac
ef34075ed8822d52c9677aad78c7b311 *gd80-09-06d2t06.flac
9e29372a9886dfb5cc5d45d75204803b *gd80-09-06d2t07.flac
f1d225e78c71419c353a4be405a74769 *gd80-09-06d2t08.flac
746efdc40e81c6db19fa8f4615fe5ef8 *gd80-09-06d2t09.flac
e24705b54948cb3420fb204f6f8bdf8b *gd80-09-06d2t10.flac
c17da7b75a4f6ec6271adaa558ad46c1 *gd80-09-06d3t01.flac
e6acd8b56544c0a229b37276f793403a *gd80-09-06d3t02.flac
aa632ad5e4c1534f4fcd7bcabd8c84dd *gd80-09-06d3t03.flac
1113f17b2f4754ab9914a01437ce9a8a *gd80-09-06d3t04.flac
0f65f8be8739305686cf32cbf2437682 *gd80-09-06d3t05.flac
a7d5cfaf3a5749841a86e0740316f02c *gd80-09-06d3t06.flac
c7752d5f8b944a81538dd453bd86d612 *gd80-09-06d3t07.flac
87f46a0c62f033d57f940b82aeb348b1 *gd80-09-06d3t08.flac
3fe533a0c1ab68466102b244b74f6e9d *gd80-09-06d3t09.flac
ab3e663dc5bdbd3e6a8aa5781b010ffa *gd80-09-06d3t10.flac
3eefbbaa06edc95c7296d6253b29604a *gd80-09-06d3t11.flac
52c9050097d682a8d849cd1401f04bf7 *gd80-09-06d3t12.flac

Comments
Add Comment
Other Sources (comments)
Nak Dragon > Sony PCM r-500... (8) MAC > ? > CD > EAC > SHNv3;... (0) *Set 1 Only*... (2) Recording by Jim Wise: FOB... (1) Recording Info (Source 1):... (0) flac24; Recording... (0) flac24; AUD: 2x... (2) flac16; AUD: 2x... (2) flac16; (FOB)... (0) flac24; (FOB)... (0) flac16; FOB 3 mic... (0) flac16; source: aud... (0) flac24; source: aud... (0) flac24; Recording by... (0) flac16; Recording by... (0)
Date User Comment