Browse Collections Artists Sources   Search Dates

Add Show    List Management    Help


Grateful Dead 09/06/80
State Fairgrounds, Lewiston, ME
Comments Add Comment    Source Collectors    Add to Collection    Add to Want List    History
Source # 93783 Other Sources
Entered by Matt Vernon
Checksums flac-md5 , ffp
Disc Counts 0 / 0
Media Size
Date Circulated
Date Added
08/02/2008
08/02/2008
Source Summary flac24; Recording Info: (FOB) Nakamichi 700 -> Master Cassette (Sony D5/Maxell UDXL-II); Transfer Info: Master Cassette (Nakamichi DR-1) -> Sound Devices 744T (24bit/88.2k) -> Samplitude Professional v10.1 -> FLAC/24; Recorded By Steve Rolfe; All Transfers and Mastering By Charlie Miller 
  Archive
Source Information - Download Text | Download Zip
Grateful Dead - September 6, 1980
Maine State Fairgrounds - Lewiston, ME

Recording Info:
(FOB) Nakamichi 700 -> Master Cassette (Sony D5/Maxell UDXL-II)

Transfer Info:
Master Cassette (Nakamichi DR-1) -> Sound Devices 744T (24bit/88.2k) ->
Samplitude Professional v10.1 -> FLAC/24
(1 DVD FLAC)

All Transfers and Mastering By Charlie Miller
[email protected]
August 1, 2008

Notes:
-- Thanks to Steve Rolfe for lending me his masters

Set 1:
s1t01 - Tuning
s1t02 - Alabama Getaway ->
s1t03 - Greatest Story Ever Told
s1t04 - Sugaree
s1t05 - Me And My Uncle ->
s1t06 - Mexicali Blues
s1t07 - Tennessee Jed
s1t08 - Feel Like A Stranger
s1t09 - Take A Step Back
s1t10 - Friend Of The Devil
s1t11 - Far From Me ->
s1t12 - Little Red Rooster
s1t13 - China Cat Sunflower ->
s1t14 - I Know You Rider ->
s1t15 - The Promised Land

Set 2:
s2t01 - Tuning
s2t02 - Shakedown Street ->
s2t03 - Lost Sailor ->
s2t04 - Saint Of Circumstance
s2t05 - Althea
s2t06 - Tuning
s2t07 - Playing In The Band ->
s2t08 - Uncle John's Band ->
s2t09 - Drums ->
s2t10 - Space ->
s2t11 - Not Fade Away ->
s2t12 - The Wheel ->
s2t13 - Uncle John's Band ->
s2t14 - Playing In The Band ->
s2t15 - Sugar Magnolia

Encore:
s2t16 - One More Saturday Night ->
s2t17 - Brokedown Palace


SHNTOOL OUTPUT:
    length     expanded size   cdr  WAVE problems filename
     3:42.787      64162604    cxx   --   -----   gd80-09-06s1t01.wav
     5:18.787      91810598    cxx   --   -----   gd80-09-06s1t02.wav
     5:01.347      86787878    cxx   --   -----   gd80-09-06s1t03.wav
    16:22.600     282988838    cxx   --   -----   gd80-09-06s1t04.wav
     2:58.507      51409964    cxx   --   -----   gd80-09-06s1t05.wav
     5:20.813      92394278    cxx   --   -----   gd80-09-06s1t06.wav
     9:57.613     172112678    cxx   --   -----   gd80-09-06s1t07.wav
    11:40.400     201715244    cxx   --   -----   gd80-09-06s1t08.wav
     0:48.693      14023724    cxx   --   -----   gd80-09-06s1t09.wav
    11:00.653     190268198    cxx   --   -----   gd80-09-06s1t10.wav
     4:15.573      73605158    cxx   --   -----   gd80-09-06s1t11.wav
     9:54.880     171325478    cxx   --   -----   gd80-09-06s1t12.wav
     6:04.613     105008684    cxx   --   -----   gd80-09-06s1t13.wav
     5:25.280      93680678    cxx   --   -----   gd80-09-06s1t14.wav
     4:22.587      75624998    cxx   --   -----   gd80-09-06s1t15.wav
     1:23.987      24188198    cxx   --   -----   gd80-09-06s2t01.wav
    11:49.840     204433964    cxx   --   -----   gd80-09-06s2t02.wav
     6:01.987     104252204    cxx   --   -----   gd80-09-06s2t03.wav
     6:42.813     116010284    cxx   --   -----   gd80-09-06s2t04.wav
    10:47.813     186570278    cxx   --   -----   gd80-09-06s2t05.wav
     2:19.387      40143398    cxx   --   -----   gd80-09-06s2t06.wav
     9:41.547     167485478    cxx   --   -----   gd80-09-06s2t07.wav
     7:50.053     135375398    cxx   --   -----   gd80-09-06s2t08.wav
    13:12.213     228157484    cxx   --   -----   gd80-09-06s2t09.wav
     3:40.640      63544364    cxx   --   -----   gd80-09-06s2t10.wav
     6:38.840     114865964    cxx   --   -----   gd80-09-06s2t11.wav
     5:17.107      91326758    cxx   --   -----   gd80-09-06s2t12.wav
     3:16.533      56601644    cxx   --   -----   gd80-09-06s2t13.wav
     3:01.440      52254764    cxx   --   -----   gd80-09-06s2t14.wav
    10:18.307     178072358    cxx   --   -----   gd80-09-06s2t15.wav
     4:41.573      81093158    cxx   --   -----   gd80-09-06s2t16.wav
     5:35.072      96500840    cxx   --   -----   gd80-09-06s2t17.wav
   214:34.285    3707795536 B                     (totals for 32 files)
Show Checksums
flac-md5
394ac033e44029cafb214b125695a39c *gd80-09-06s1t01.flac
22fb8fdd25fa0648a7980d754a02bd04 *gd80-09-06s1t02.flac
2541bc8cd2887ab9e0f14a0789c377b8 *gd80-09-06s1t03.flac
a1dc6b3c2b3ae79f6b58a0072329eabe *gd80-09-06s1t04.flac
5a5fb2a0ae9f7bfedb2bdc16d42ccdd0 *gd80-09-06s1t05.flac
f72a51998e77fc751a153ddb1fb86eab *gd80-09-06s1t06.flac
f91cb45182ad57820ccbb65bf16b72ce *gd80-09-06s1t07.flac
72e2576f4a6e11fe2f6e44e5d8c704d5 *gd80-09-06s1t08.flac
e27315bbd565a9da6c39b12793ec2fa1 *gd80-09-06s1t09.flac
9ba3ebf11b82a029ee60b39933f6040d *gd80-09-06s1t10.flac
190b0c2862b843dd52d4e40e100d6574 *gd80-09-06s1t11.flac
320a20480e91cd29c8a466b694707337 *gd80-09-06s1t12.flac
f75d8958715d1b06f3ac12948d8d4abd *gd80-09-06s1t13.flac
4e15262a3e8e30e2cef7605fd21a46f3 *gd80-09-06s1t14.flac
6b4ab485252e164faaab94b571e24a92 *gd80-09-06s1t15.flac
270ebef704334d93b3420f88eee5500e *gd80-09-06s2t01.flac
37fc729fd829e33c8804947d47b98672 *gd80-09-06s2t02.flac
266aa8d7e7efcb36f5806ec9d1c0d269 *gd80-09-06s2t03.flac
868a392a8e4ad1a51d3b41cb42568966 *gd80-09-06s2t04.flac
8dd1e8b78d3da225ef8cbff20793e25f *gd80-09-06s2t05.flac
221e751ab9da2526ab8e15b6c2d22a89 *gd80-09-06s2t06.flac
7b1692dd6193dff42ad0fbd205228759 *gd80-09-06s2t07.flac
506c9af4e092379ed5b4fd206cf471fd *gd80-09-06s2t08.flac
b8172d4b9432982527b8281062e74d64 *gd80-09-06s2t09.flac
043657e9c982008199bf77aaaf5ac041 *gd80-09-06s2t10.flac
a56b0f47d6eec92296bc9379b5b90503 *gd80-09-06s2t11.flac
d417fd249bde1d264c13737689baabe0 *gd80-09-06s2t12.flac
3965ba95a589a40091a3f9d63ebb6964 *gd80-09-06s2t13.flac
22fc9872518344cadfecab33b9bbfc37 *gd80-09-06s2t14.flac
da948e710f50e25ad9c132f425089693 *gd80-09-06s2t15.flac
1d3be5555798b93d8cd4871e434b131d *gd80-09-06s2t16.flac
d49f7cb1554ef294f3178ff59b3a1a50 *gd80-09-06s2t17.flac
ffp
gd80-09-06s1t01.flac:aa513c15766bd5da668dfbc8220530cc
gd80-09-06s1t02.flac:edc8eaa3050bd4cf5737a7c697bbe351
gd80-09-06s1t03.flac:abcad55f2e67eb4d39953188615fe823
gd80-09-06s1t04.flac:382f1eedddaedeb4f2774af1c10ca420
gd80-09-06s1t05.flac:c7cbf778374326b39618b8b84c8d1fd9
gd80-09-06s1t06.flac:7709c4c5e3a3a2392ce4096180d7873a
gd80-09-06s1t07.flac:92652339dcc5d2d23d627f63cea60bad
gd80-09-06s1t08.flac:c1f8d9cebf9dd98ea3af33d7df151942
gd80-09-06s1t09.flac:4b32b48b4c974be94b2860789b14b29e
gd80-09-06s1t10.flac:eee28e23183aacda4d6c34937a5fc8e4
gd80-09-06s1t11.flac:0cd4769a9cd44818dfeefebbd06cb92b
gd80-09-06s1t12.flac:a5eac485f60704b321eac75f76771b86
gd80-09-06s1t13.flac:b0a8c41500a5791e3be0003dfe05b54c
gd80-09-06s1t14.flac:3cfd6365ac9ef1c9b152bf3ba9bbd522
gd80-09-06s1t15.flac:ac45644340c2d74c8901f121ada3f0f1
gd80-09-06s2t01.flac:049a791b60178f125ee95382f27116fa
gd80-09-06s2t02.flac:622dceeb7a1954e73f559db6b0840aee
gd80-09-06s2t03.flac:58b235b57dc92db40af08f76159bce7c
gd80-09-06s2t04.flac:03897a0326781e17a465a60ee8c15ab2
gd80-09-06s2t05.flac:77cbd42686551c6b1bc9b79fe988fb02
gd80-09-06s2t06.flac:9d99a596b0a1829f2a25b93458638241
gd80-09-06s2t07.flac:3f5211bbf3951052d028d4ffecf5803b
gd80-09-06s2t08.flac:926c4e5fd5d2ab7933338c881e6b1864
gd80-09-06s2t09.flac:c3856399bef71c9d185478e3ab1a374b
gd80-09-06s2t10.flac:c20c8c0da0f61327baa52afa426f9ac9
gd80-09-06s2t11.flac:9f294023975cccfe87a44c70ac8fedf8
gd80-09-06s2t12.flac:ae39f6a869ada6faa1323113e8a1a413
gd80-09-06s2t13.flac:0d6e30ef89928938f91077d65c8b3450
gd80-09-06s2t14.flac:0a62e2cf6fd8084cce0319c673b2dadd
gd80-09-06s2t15.flac:48f1243d9f956c817b70e510a0668da2
gd80-09-06s2t16.flac:61c26009759feb7abab357f77f55f342
gd80-09-06s2t17.flac:aa4bebf469631cffd2005933839c9a2b

Comments
Add Comment
Other Sources (comments)
Nak Dragon > Sony PCM r-500... (8) MAC > ? > CD > EAC > SHNv3;... (0) *Set 1 Only*... (2) Recording by Jim Wise: FOB... (1) Recording Info (Source 1):... (0) flac16; Recording... (0) flac24; AUD: 2x... (2) flac16; AUD: 2x... (2) flac16; (FOB)... (0) flac24; (FOB)... (0) flac16; FOB 3 mic... (0) flac16; source: aud... (0) flac24; source: aud... (0) flac24; Recording by... (0) flac16; Recording by... (0) flac24; Source Info:... (0) flac16/48kHz; Source... (0)
Date User Comment