Browse Collections Artists Sources   Search Dates

Add Show    List Management    Help


Grateful Dead 10/25/80
Radio City Music Hall, New York, NY
Comments Add Comment    Source Collectors    Add to Collection    Add to Want List    History
Source # 93804 Other Sources
Entered by Matt Vernon
Checksums flac-md5 , ffp
Disc Counts 2 / 3
Media Size
Date Circulated
Date Added
08/03/2008
08/02/2008
Source Summary flac16; Recording Info: Nakamichi 700 -> Master Cassette (Sony D5/Maxell UDXL-I & UDXL-II/Dolby B); Transfer Info: Master Cassette (Nakamichi DR-1/Dolby B) -> Sound Devices 744T (24bit/88.2k) -> Samplitude Professional v10.1 -> FLAC/16; Recorded By Steve Rolfe; All Transfers and Mastering By Charlie Miller 
  Archive
Source Information - Download Text | Download Zip
Grateful Dead - October 25, 1980
Radio City Music Hall - New York, NY

Recording Info:
Nakamichi 700 -> Master Cassette (Sony D5/Maxell UDXL-I & UDXL-II/Dolby B)

Transfer Info:
Master Cassette (Nakamichi DR-1/Dolby B) -> Sound Devices 744T (24bit/88.2k) ->
Samplitude Professional v10.1 -> FLAC/16
(3 Discs Audio / 2 Discs FLAC)

All Transfers and Mastering By Charlie Miller
[email protected]
August 1, 2008

Patch Info:
Audience Recording (shnid=8726) supplies:
Very short patch at end of Black Peter (forgot to note the times)

Notes:
-- All disc changes are seamless
-- Recorded front row balcony
-- Thanks to Steve Rolfe for lending me his masters

Set 1:
d1t01 - Tuning
d1t02 - Deep Elem Blues
d1t03 - The Race Is On
d1t04 - I've Been All Around This World
d1t05 - Monkey And The Engineer
d1t06 - To Lay Me Down ->
d1t07 - El Paso
d1t08 - Bird Song
d1t09 - Heaven Help The Fool
d1t10 - Dire Wolf ->
d1t11 - Ripple

Set 2:
d1t12 - Tuning
d1t13 - Mississippi Half-Step Uptown Toodeloo ->
d1t14 - Franklin's Tower
d2t01 - Me And My Uncle ->
d2t02 - Big River
d2t03 - High Time
d2t04 - New Minglewood Blues
d2t05 - Ramble On Rose ->
d2t06 - Looks Like Rain
d2t07 - Deal

Set 3:
d2t08 - Tuning
d2t09 - Cold Rain And Snow ->
d2t10 - Lost Sailor ->
d2t11 - Saint Of Circumstance
d3t01 - Uncle John's Band ->
d3t02 - Playing In The Band ->
d3t03 - Drums ->
d3t04 - Space ->
d3t05 - The Other One ->
d3t06 - Black Peter ->
d3t07 - Around And Around ->
d3t08 - One More Saturday Night

Encore:
d3t09 - U.S. Blues


SHNTOOL OUTPUT:
    length     expanded size   cdr  WAVE problems filename
     1:42.44       18096332    ---   --   -----   gd80-10-25d1t01.wav
     6:25.14       67946972    ---   --   -----   gd80-10-25d1t02.wav
     3:59.35       42241964    ---   --   -----   gd80-10-25d1t03.wav
     4:58.74       52741292    ---   --   -----   gd80-10-25d1t04.wav
     3:10.68       33675980    ---   --   -----   gd80-10-25d1t05.wav
     8:59.39       95171372    ---   --   -----   gd80-10-25d1t06.wav
     5:44.15       60716924    ---   --   -----   gd80-10-25d1t07.wav
     9:06.18       96356780    ---   --   -----   gd80-10-25d1t08.wav
     7:24.44       78425132    ---   --   -----   gd80-10-25d1t09.wav
     3:26.32       36413708    ---   --   -----   gd80-10-25d1t10.wav
     4:47.64       50777372    ---   --   -----   gd80-10-25d1t11.wav
     0:53.57        9483308    ---   --   -----   gd80-10-25d1t12.wav
     7:02.42       74539628    ---   --   -----   gd80-10-25d1t13.wav
     8:35.00       90846044    ---   --   -----   gd80-10-25d1t14.wav
     2:59.04       31585052    ---   --   -----   gd80-10-25d2t01.wav
     6:38.11       70233116    ---   --   -----   gd80-10-25d2t02.wav
     9:17.67       98412428    ---   --   -----   gd80-10-25d2t03.wav
     9:00.59       95394812    ---   --   -----   gd80-10-25d2t04.wav
     6:42.27       70976348    ---   --   -----   gd80-10-25d2t05.wav
     7:27.29       78919052    ---   --   -----   gd80-10-25d2t06.wav
     6:37.09       70052012    ---   --   -----   gd80-10-25d2t07.wav
     1:31.00       16052444    ---   --   -----   gd80-10-25d2t08.wav
     6:23.17       67601228    ---   --   -----   gd80-10-25d2t09.wav
     6:40.66       70715276    ---   --   -----   gd80-10-25d2t10.wav
     9:06.32       96389708    ---   --   -----   gd80-10-25d2t11.wav
     6:20.23       67086140    ---   --   -----   gd80-10-25d3t01.wav
     9:50.64      104226572    ---   --   -----   gd80-10-25d3t02.wav
     9:44.44      103121132    ---   --   -----   gd80-10-25d3t03.wav
     4:49.28       51045500    ---   --   -----   gd80-10-25d3t04.wav
     3:49.00       40395644    ---   --   -----   gd80-10-25d3t05.wav
    10:05.38      106811420    ---   --   -----   gd80-10-25d3t06.wav
     3:52.71       41091836    ---   --   -----   gd80-10-25d3t07.wav
     4:51.09       51353612    ---   --   -----   gd80-10-25d3t08.wav
     5:23.01       56979596    ---   --   -----   gd80-10-25d3t09.wav
   207:28.20     2195875736 B                     (totals for 34 files)
Show Checksums
flac-md5
20e2609dd8be29085c82f9b0bdedbf12 *gd80-10-25d1t01.flac
deeffe9d3f3132342ff9e2ddffdc70d1 *gd80-10-25d1t02.flac
6e2a0006e72c6d5f2f35fa633677ab74 *gd80-10-25d1t03.flac
2c4bf66da8671cd5f01a570c18745430 *gd80-10-25d1t04.flac
06262003f85e0072fa2361409081058f *gd80-10-25d1t05.flac
fd72fedb77f7f33a63703e839e7d69c0 *gd80-10-25d1t06.flac
2d81764d15ef9001bc230e81273a0e84 *gd80-10-25d1t07.flac
ad1ca0a9d0c7f36c4db9985449fe6558 *gd80-10-25d1t08.flac
432811ec90b05082c9c3077a6b43e8c9 *gd80-10-25d1t09.flac
05e52763ba88c782b4006d4247922867 *gd80-10-25d1t10.flac
2a4553046bdf175a43bda27949e1d621 *gd80-10-25d1t11.flac
3ceca27ebc3f9465adc58bc0cf322d82 *gd80-10-25d1t12.flac
4ab518692dc3313569d1df3ffabe6efc *gd80-10-25d1t13.flac
38e30c496ccf92bff2d54d87d5a56358 *gd80-10-25d1t14.flac
6da97ee5edbc32d9cbf2523b63a20ed4 *gd80-10-25d2t01.flac
b5f0ba47783708b95f26c52cc19e27f6 *gd80-10-25d2t02.flac
d22bd3886a5b14b145bba70a5943dcd1 *gd80-10-25d2t03.flac
1751ded12126c15c41a982b0c3a12838 *gd80-10-25d2t04.flac
15f3ca76a0aa4eb72fa31ec409d8ada6 *gd80-10-25d2t05.flac
c93eda85eb0ad7639e8317b784cc6704 *gd80-10-25d2t06.flac
145cb1d85b28956fca57ae80aad7065f *gd80-10-25d2t07.flac
42adfde37b56422ffec127ebf9e21020 *gd80-10-25d2t08.flac
0dc590ec8dacbeafb424138cd4039237 *gd80-10-25d2t09.flac
2085c2b78253427578205e487627ec89 *gd80-10-25d2t10.flac
da053a5145f6ef687281bc07e471b7fa *gd80-10-25d2t11.flac
4c3f606d5923abc6a3be1453254b838a *gd80-10-25d3t01.flac
b4e4589be794076a0959c830da8bd2e0 *gd80-10-25d3t02.flac
a9509233e9bc677f5549ddee974bc5b5 *gd80-10-25d3t03.flac
c8919b311d5e005fbe56924e8a1a6ade *gd80-10-25d3t04.flac
73f032306d86971171382db741334011 *gd80-10-25d3t05.flac
2d7ad144917c31ab77842253a7e7ca68 *gd80-10-25d3t06.flac
c07bc3187a4b46cf27e7acdbc2337d2d *gd80-10-25d3t07.flac
8f87aaec9bbe4807f0f09ca36edb5cb1 *gd80-10-25d3t08.flac
78cfccc4f534a4d9b48f73ce329ec844 *gd80-10-25d3t09.flac
ffp
gd80-10-25d1t01.flac:4c55b2c87c45e26ed11d834ee918de62
gd80-10-25d1t02.flac:e19140bd830db1e2bd89d2632e61a049
gd80-10-25d1t03.flac:18472d72c283f185aa13f5cff91929e1
gd80-10-25d1t04.flac:4274922bf5dd997804b1e14eeaa81911
gd80-10-25d1t05.flac:d28a2218fdb52cb733a33df637889d2e
gd80-10-25d1t06.flac:60108ddbb013e9c355cfa549acc933f8
gd80-10-25d1t07.flac:8ca5cbb1f620165bc26a2f7bf0d7c1f4
gd80-10-25d1t08.flac:564193fafb35ce28a5c4430e81014a57
gd80-10-25d1t09.flac:06528972b3019ce23a395e77084abaaa
gd80-10-25d1t10.flac:f057f0c733873fdf0441bd142ea8789f
gd80-10-25d1t11.flac:65ac9b6a7f5526bd75340ef54a01a75e
gd80-10-25d1t12.flac:f7c1cf1c55fad5c4242f08570df77f71
gd80-10-25d1t13.flac:eeda887e14458ed52a5100ebc1288f8a
gd80-10-25d1t14.flac:215ab38a126ff28b97a6dd3ba963a16c
gd80-10-25d2t01.flac:7bdc46aa96583e0319a14bc237e2b1da
gd80-10-25d2t02.flac:a281b16d3f75579cc7cc7b53d04d3596
gd80-10-25d2t03.flac:9f36dd1ba88f1f6b7c92007ca2974986
gd80-10-25d2t04.flac:a4d9c48b0d84e840aa9ff23f150ce9c9
gd80-10-25d2t05.flac:edab821635bc80c9eb750bdbd2414ab6
gd80-10-25d2t06.flac:31cdaba2b5e81fede93a05cace404f9f
gd80-10-25d2t07.flac:f21f53ce8da1d10d9add8cbd756557dc
gd80-10-25d2t08.flac:755dc75b2ebcd3c5cbf32edd73cbcecc
gd80-10-25d2t09.flac:3b35681b256ba63fb31a1090e3d10e40
gd80-10-25d2t10.flac:660135903e5b42d28d63181ebce86210
gd80-10-25d2t11.flac:d3f379e2a4ebe7c0b82a55a296768f8d
gd80-10-25d3t01.flac:a5a01eef7581b43db4dcff04bc64238e
gd80-10-25d3t02.flac:583422bd2acd8afe9374a4d81b5f15fc
gd80-10-25d3t03.flac:53d9ffab81a9a7c3d8d1f1174dad0581
gd80-10-25d3t04.flac:06ea87f60be622260f12b268cebd65f4
gd80-10-25d3t05.flac:7601557575b299a9d3d0596b6b6eaa34
gd80-10-25d3t06.flac:febcd04a5993f13a55d1baeb44d85041
gd80-10-25d3t07.flac:d436bca608a8d335f425fb24b07e50ca
gd80-10-25d3t08.flac:3e9c56e3983c489108ccd0b9f44d19ca
gd80-10-25d3t09.flac:167e0d5d9523777adf11e0043a071abd

Comments
Add Comment
Other Sources (comments)
AUD>MC>DAT>CDR; Seeded to... (2) flac16; Recording... (0) flac24; AUD: 2x... (0) flac16; AUD: 2x... (0) flac16; Nak 700's >... (1)
Date User Comment