Browse Collections Artists Sources   Search Dates

Add Show    List Management    Help


Grateful Dead 02/26/90
Oakland-Alameda County Coliseum, Oakland, CA
Comments Add Comment    Source Collectors    Add to Collection    Add to Want List    History
Source # 93841 Other Sources
Entered by Matt Vernon
Checksums ffp , flac-md5
Disc Counts 2 / 2
Media Size
Date Circulated
Date Added
08/05/2008
08/05/2008
Source Summary flac16; FOB AUD: Sennheiser MD-421's > Sony TC-D5M > TDK MA 90's with no Dolby. Mics on six-foot stand, at 90-degree spread, thirty feet from the stage, in the center. Taped by Alabama Bob. Transfer: MAC > Nakamichi DR-8 (no Dolby) > Audiophile 2496 > Soundforge > CD-Wave > TLH > FLAC. Transfer by Andrew F. 
  Archive
Source Information - Download Text | Download Zip
GRATEFUL DEAD
Coliseum Arena
Oakland CA
02-26-1990  

Disc One (79:56)

01 crowd & tuning
02 Hell in a Bucket
03 Peggy-O
04 Walkin' Blues
05 Ramble on Rose
06 we want phil >
07 Just Like Tom Thumb's Blues
08 The Music Never Stopped >
09 Don't Ease Me In
-- set break --
10 Scarlet Begonias >
11 Fire on the Mountain

Disc Two (60:58)

01 crowd & tuning
02 Playin' in the Band >
03 Terra//pin >
xx Drums (missing)
04 Spa//ce >
05 I Need a Miracle >
06 Stella Blue >
07 Turn on Your Lovelight
-- encore --
08 It's All Over Now, Baby Blue

FOB AUD: Sennheiser MD-421's > Sony TC-D5M > TDK MA 90's with
no Dolby. Mics on six-foot stand, at 90-degree spread, thirty
feet from the stage, in the center. Taped by Alabama Bob.

Transfer: MAC > Nakamichi DR-8 (no Dolby) > Audiophile 2496 >
Soundforge > CD-Wave > TLH > FLAC. Transfer by Andrew F.

Notes:
- Disc break is seamless.
- Tape flip in Terrapin at 6:34, aprx two minutes missing.
- Drums not recorded on the MAC.
- Tape flip in Space at 7:06.918, mended together.

    length     expanded size    cdr  WAVE problems  fmt   ratio  filename
     1:23.17       14681228 B   ---   --   ---xx   flac  0.5330  gd1990-02-26d1t01.flac
     7:30.49       79495292 B   ---   --   ---xx   flac  0.6235  gd1990-02-26d1t02.flac
     7:05.23       75024140 B   ---   --   ---xx   flac  0.5887  gd1990-02-26d1t03.flac
     7:50.12       82936268 B   ---   --   ---xx   flac  0.5997  gd1990-02-26d1t04.flac
     8:14.11       87167516 B   ---   --   ---xx   flac  0.6228  gd1990-02-26d1t05.flac
     1:10.71       12515036 B   ---   --   ---xx   flac  0.5949  gd1990-02-26d1t06.flac
     6:36.57       69988508 B   ---   --   ---xx   flac  0.6060  gd1990-02-26d1t07.flac
     7:01.00       74264444 B   ---   --   ---xx   flac  0.6225  gd1990-02-26d1t08.flac
     3:51.19       40793132 B   ---   --   ---xx   flac  0.6299  gd1990-02-26d1t09.flac
    13:00.58      137728460 B   ---   --   ---xx   flac  0.6056  gd1990-02-26d1t10.flac
    16:12.13      171491420 B   ---   --   ---xx   flac  0.6083  gd1990-02-26d1t11.flac
     1:03.71       11280236 B   ---   --   ---xx   flac  0.5151  gd1990-02-26d2t01.flac
     9:51.64      104402972 B   ---   --   ---xx   flac  0.6028  gd1990-02-26d2t02.flac
    11:24.66      120812876 B   ---   --   ---xx   flac  0.5958  gd1990-02-26d2t03.flac
    11:27.06      121200956 B   ---   --   ---xx   flac  0.5526  gd1990-02-26d2t04.flac
     4:40.42       49490828 B   ---   --   ---xx   flac  0.6189  gd1990-02-26d2t05.flac
     8:48.33       93216860 B   ---   --   ---xx   flac  0.5681  gd1990-02-26d2t06.flac
     6:25.58       68050460 B   ---   --   ---xx   flac  0.6019  gd1990-02-26d2t07.flac
     7:16.34       76990412 B   ---   --   ---xx   flac  0.5890  gd1990-02-26d2t08.flac
   140:55.29     1491531044 B                            0.5985  (19 files)

No errors occured.
Show Checksums
ffp
gd1990-02-26d1t01.flac:f0fc70394c11495c412cf8731882704b
gd1990-02-26d1t02.flac:2dd6e24785db9a0f91255fcbed9226fa
gd1990-02-26d1t03.flac:cfd70d27afc25c8ab4e6025502db3b4b
gd1990-02-26d1t04.flac:9c1c94f8e7d7eec72214580166262616
gd1990-02-26d1t05.flac:b077d928cd8681fe985f519943b2516f
gd1990-02-26d1t06.flac:dec8436891ab198febe35c71f66e9755
gd1990-02-26d1t07.flac:134042374f27ccfad450213681f4ade0
gd1990-02-26d1t08.flac:decc5bbf401b64ee293a344b906974bc
gd1990-02-26d1t09.flac:73f28e08cadf375ee03df62d8b82674c
gd1990-02-26d1t10.flac:e58791f6e372f99e02133281f2835723
gd1990-02-26d1t11.flac:1b725791e3283729ab2b335b0f3568a0
gd1990-02-26d2t01.flac:8ef16c99a8430a33e22b896d38f7e040
gd1990-02-26d2t02.flac:30bc3a4224b21edd9ba7a8db0839ebf8
gd1990-02-26d2t03.flac:7d31864045acd1e1c4d745fffb4db3a8
gd1990-02-26d2t04.flac:04bd91053251bb8bc4fb0fd5f12e2167
gd1990-02-26d2t05.flac:695219fb917da0698e37cc1ee48ecd21
gd1990-02-26d2t06.flac:54d425c83cc848b5e2924287a11ecbae
gd1990-02-26d2t07.flac:f8ad8d0e279e10a2d0e100444fa0dfee
gd1990-02-26d2t08.flac:d0c09af83face66ebac32e96fec4ce04
flac-md5
8ec65c734137f3d3e6f1ecd88eebea87 *gd1990-02-26d1t01.flac
316cf4376f270f31034f2c900b418b5b *gd1990-02-26d1t02.flac
28e7cf40011c23456a14122b88c36379 *gd1990-02-26d1t03.flac
4ada37d1825c02029f211e2f576d038c *gd1990-02-26d1t04.flac
a78db13dd222d0a40ec6cdcd88438ee5 *gd1990-02-26d1t05.flac
861d6de876f49dfffed8fa1371324d69 *gd1990-02-26d1t06.flac
42823c1bebcbeb331ae36e5000570a03 *gd1990-02-26d1t07.flac
5c83f352bc6f223762f7e94b89003143 *gd1990-02-26d1t08.flac
ccd962e4b00d9abd4afbe8ad72bae019 *gd1990-02-26d1t09.flac
40d0f3f9ce1d3d1a71b0fc2b60d3a692 *gd1990-02-26d1t10.flac
49e876f577611fe8a02e65f9a71998af *gd1990-02-26d1t11.flac
0d2d7239cedd6870267c1207e507b1cc *gd1990-02-26d2t01.flac
8739a0fe9b6bc5de07725d448bd476b1 *gd1990-02-26d2t02.flac
01470c06c64dd7345e3f874f3bc104f5 *gd1990-02-26d2t03.flac
90a4836aca6fb805b0b6162c99975354 *gd1990-02-26d2t04.flac
e36ff640dac18e84e1d682b97fdf394e *gd1990-02-26d2t05.flac
002d3335c76157a3d74d765815b5a74e *gd1990-02-26d2t06.flac
8c71445c35705c9cacfeb54063d08554 *gd1990-02-26d2t07.flac
760bdb377d98ccc40628ea5e1c594092 *gd1990-02-26d2t08.flac

Comments
Add Comment
Other Sources (comments)
SBD > CM> DAT; Conversion:... (5) Snbd > Dat> cdr >Dat >... (2) flac16; Digital... (0) flac16/48kHz; 2... (0) flac16; Source:... (0) flac16/48kHz;... (0)
Date User Comment
09/28/2008 BamaBob A wonderful show from Peggy-o to are you ready for star timw? Then the 26.5min Scarlet>Fire and a Baby blue wrapup. Damn it was Smokin!!