Browse Collections Artists Sources   Search Dates

Add Show    List Management    Help


Phil Lesh & Friends 11/03/07
Nokia Theatre, New York, NY
Comments Add Comment    Source Collectors    Add to Collection    Add to Want List    History
Source # 93890 Other Sources
Entered by
Checksums flac-md5 , ffp
Disc Counts 2 / 3
Media Size
Date Circulated
Date Added
08/08/2008
08/08/2008
Source Summary SBD+AUD Matrix (approx. 55% SBD + 45% AUD) by ekoostikal  
  Archive
Source Information - Download Text | Download Zip
Phil Lesh & Friends
Nokia Theatre, Times Square
New York, NY
November 3, 2007

"For the Phans....... By the Phans....."

SBD+AUD Matrix (approx. 55% SBD + 45% AUD)

Source: SBD: shnid - 89182 - Free Phil & Friends DSBD
        AUD: shnid - 88522 - mk41v (dina, fob) > kc5 > m222 > nt222 + mk5 (omni, nos, fob) kc5 > cmc6 > lunatec V3 (analog out) > SD744T
Recorded By: SonicSound

Lineage: Flac->xACT->WAV->Audacity (track assembly/allignment/mixing/eq)->wavepad (tracking)->xACT (align sector boundries)->Flac (verified/Level 8)

Mixdown: AUD: -5.0db.
         SBD: -4.0db.
   Final Mix: -0.1db.

Mixing and conversions done by: ekoostikal - [email protected]


Disc 1:
Set 1:
01. Good Lovin'->
02. Downhearted
03. Pride of Cucamonga
04. This Wheels of Fire
05. Mississippi Half-Step Uptown Toodeloo->
06. So Hard To Find My Way
07. Big Boss Man

Disc 2:
Set 2:
01. Playing In The Band->
02. Spots of Time->
03. The Wheel->
04. Somebody Loan Me a Dime

Disc 3: (set 2 cont.)
01. Jack Straw->
02. Unbroken Chain->
03. St. Stephen->
04. The Eleven->
05. Turn On Your Lovelight
Encore:
06. Donor Rap / Band Intros
07. Casey Jones


Phil Lesh (bass, vocals)
Jackie Greene (guitar, vocals)
Larry Campbell (guitar & more)
Steve Molitz (keyboards)
John Molo (drums)


MIXDOWN NOTES:

To start, this was an amazing AUD recording by SonicSound and flawless. The SBD source was a little low so it was amplified by track on average of +3.5db to a maximum level of -3.0db. The AUD level was brought down an average of -4.0db per track to a maximum level of -3.0db. Each track was synced individually then aligned into 1 continuous WAV per set. There were some very small portions of crowd missing from the SBD source between songs and the AUD fills these in. They are not noticeable. There was also significant static at the start of D2T04 present on both sources most likely from the PA. It was pretty bad as it was a large spike so I lowered the levels during the static to a more suitable level. It is only about 2 seconds of noise so I decided to keep it in the mix instead of cutting it out completely. The SBD source also suffered from the same "clicking" sound as the other SBD's of this run have. I did my best to suppress these by mixing the AUD a little hotter and running click removal. It worked pretty good but there are still some places it is noticeable more than others. All mixing and minor equalizing were done using Audacity. Tracking was done using Wavepad, and Flac conversion and sector boundary alignment were done using xACT.

Overall I feel this turned out pretty nice and is a good listen and has a nice "Full" sound to it. I really enjoyed doing this project as this was a very fun show with some great energy throughout. IMO highlights are Pride of Cucamonga & St. Stephen->Eleven->Lovelight

Completed August 7, 2008 By: ekoostikal - [email protected]

~Enjoy!!

** NEVER SELL FOR GAIN OF ANY KIND **
** PLEASE DO NOT DISTRIBUTE IN MP3 OR OTHER LOSSLY FORMATS**
** SUPPORT PHIL BY GIONG TO HIS SHOWS AND BUYING HIS MERCH!!**

FFP:
plf2007-11-03.mtx.s1t01.flac:3f430fc6b8d9112ad0fb2d3a26d7ffcf
plf2007-11-03.mtx.s1t02.flac:9762527695f8e0c985680b20587fc109
plf2007-11-03.mtx.s1t03.flac:f9879a84fb3068e8ad4e2830c3cadce7
plf2007-11-03.mtx.s1t04.flac:de97dc8bee9d789a0f105e2dff5d4924
plf2007-11-03.mtx.s1t05.flac:74cc22d6572a62a33db97a2867974376
plf2007-11-03.mtx.s1t06.flac:56aa6f9ceee538e107ae1fbcdbed2437
plf2007-11-03.mtx.s1t07.flac:56c62acaef937049d2100198170f7860
plf2007-11-03.mtx.s2t01.flac:fb485b8625086eb5013e62fbcb9d53b0
plf2007-11-03.mtx.s2t02.flac:35f5f47e0f130d3f3e0a727a23baddd3
plf2007-11-03.mtx.s2t03.flac:497550324b968c37f27e0e6acec5cb4b
plf2007-11-03.mtx.s2t04.flac:35c5d7503c87ce265d38f18bcc6e2a25
plf2007-11-03.mtx.s2t05.flac:8592fb10495bedb1ac00a2b232fa6fad
plf2007-11-03.mtx.s2t06.flac:3b157b6f93a8d4f86688b0e91f5821b4
plf2007-11-03.mtx.s2t07.flac:d83ac5a4e63768a92393b285282f2c03
plf2007-11-03.mtx.s2t08.flac:0078f635e691d83cd83bda35af068444
plf2007-11-03.mtx.s2t09.flac:47db1befbcef12762c2d950b8e976388
plf2007-11-03.mtx.s2t10.flac:b27b5b1fb09c69fd878883af2b25c80e
plf2007-11-03.mtx.s2t11.flac:e689e2034f61df1824640a03bf5c74b8

SHNTOOL:
    length     expanded size    cdr  WAVE problems  fmt   ratio  filename
    12:29.21      132173036 B   ---   --   ---xx  plf2007-11-03.mtx.s1t01.flac
     5:39.66       59954876 B   ---   --   ---xx  plf2007-11-03.mtx.s1t02.flac
    10:28.39      110870972 B   ---   --   ---xx  plf2007-11-03.mtx.s1t03.flac
     6:57.12       73587068 B   ---   --   ---xx  plf2007-11-03.mtx.s1t04.flac
     9:38.03      101966300 B   ---   --   ---xx  plf2007-11-03.mtx.s1t05.flac
     6:46.43       71719580 B   ---   --   ---xx  plf2007-11-03.mtx.s1t06.flac
     5:11.55       54989804 B   ---   --   ---xx  plf2007-11-03.mtx.s1t07.flac
    11:30.10      121739564 B   ---   --   ---xx  plf2007-11-03.mtx.s2t01.flac
     8:49.14       93348572 B   ---   --   ---xx  plf2007-11-03.mtx.s2t02.flac
    11:04.26      117190796 B   ---   --   ---xx  plf2007-11-03.mtx.s2t03.flac
    11:07.41      117755276 B   ---   --   ---xx  plf2007-11-03.mtx.s2t04.flac
     8:01.34       84928412 B   ---   --   ---xx  plf2007-11-03.mtx.s2t05.flac
    17:32.57      185706908 B   ---   --   ---xx  plf2007-11-03.mtx.s2t06.flac
    11:58.19      126699932 B   ---   --   ---xx  plf2007-11-03.mtx.s2t07.flac
     8:03.11       85227116 B   ---   --   ---xx  plf2007-11-03.mtx.s2t08.flac
    11:29.34      121619612 B   ---   --   ---xx  plf2007-11-03.mtx.s2t09.flac
     2:37.40       27788924 B   ---   --   ---xx  plf2007-11-03.mtx.s2t10.flac
     5:57.45       63080684 B   ---   --   ---xx  plf2007-11-03.mtx.s2t11.flac
   165:22.45     1750347432 B                            0.5368  (18 files)

Show Checksums
flac-md5
f70d646c20bb103cd0ea75ffb6bf0519 *plf2007-11-03.mtx.s1t01.flac
dc058157cbffbd3e88cd331bc578cf6d *plf2007-11-03.mtx.s1t02.flac
f7038f16d0bb71e330d4800f0f0915d7 *plf2007-11-03.mtx.s1t03.flac
6c9ce6b30b79eb4f7eb0af56ffe958d0 *plf2007-11-03.mtx.s1t04.flac
f95e65acef795bf987f8810c436d6c65 *plf2007-11-03.mtx.s1t05.flac
f2f014804beb4d393185123339393dd7 *plf2007-11-03.mtx.s1t06.flac
cb89ea3ff6246204e518a6a7592e2cbf *plf2007-11-03.mtx.s1t07.flac
0652f128064a0dac61c8fa423f7f7d74 *plf2007-11-03.mtx.s2t01.flac
5567ede4761acb7a5af083a1e79182c7 *plf2007-11-03.mtx.s2t02.flac
28165414b0001f47e0b5fc5732fa1a81 *plf2007-11-03.mtx.s2t03.flac
7bc1a9d9f4869d48b80624e37a914d4a *plf2007-11-03.mtx.s2t04.flac
6aab295dfe025c447fcab24b2bf12353 *plf2007-11-03.mtx.s2t05.flac
9de0acd58b1a7cc6b7dc8199986f311a *plf2007-11-03.mtx.s2t06.flac
147adcf7735a5469dc15c81c61188ae8 *plf2007-11-03.mtx.s2t07.flac
2330e77b26306fec95b2cb6c6fe12d10 *plf2007-11-03.mtx.s2t08.flac
fe772914922e70dfe257a69deed48dbb *plf2007-11-03.mtx.s2t09.flac
856f853b4e1648aba43ce1b78d224a9b *plf2007-11-03.mtx.s2t10.flac
8f8f0ae22ab77f3b7834a53e4a3e18ea *plf2007-11-03.mtx.s2t11.flac
ffp
plf2007-11-03.mtx.s1t01.flac:3f430fc6b8d9112ad0fb2d3a26d7ffcf
plf2007-11-03.mtx.s1t02.flac:9762527695f8e0c985680b20587fc109
plf2007-11-03.mtx.s1t03.flac:f9879a84fb3068e8ad4e2830c3cadce7
plf2007-11-03.mtx.s1t04.flac:de97dc8bee9d789a0f105e2dff5d4924
plf2007-11-03.mtx.s1t05.flac:74cc22d6572a62a33db97a2867974376
plf2007-11-03.mtx.s1t06.flac:56aa6f9ceee538e107ae1fbcdbed2437
plf2007-11-03.mtx.s1t07.flac:56c62acaef937049d2100198170f7860
plf2007-11-03.mtx.s2t01.flac:fb485b8625086eb5013e62fbcb9d53b0
plf2007-11-03.mtx.s2t02.flac:35f5f47e0f130d3f3e0a727a23baddd3
plf2007-11-03.mtx.s2t03.flac:497550324b968c37f27e0e6acec5cb4b
plf2007-11-03.mtx.s2t04.flac:35c5d7503c87ce265d38f18bcc6e2a25
plf2007-11-03.mtx.s2t05.flac:8592fb10495bedb1ac00a2b232fa6fad
plf2007-11-03.mtx.s2t06.flac:3b157b6f93a8d4f86688b0e91f5821b4
plf2007-11-03.mtx.s2t07.flac:d83ac5a4e63768a92393b285282f2c03
plf2007-11-03.mtx.s2t08.flac:0078f635e691d83cd83bda35af068444
plf2007-11-03.mtx.s2t09.flac:47db1befbcef12762c2d950b8e976388
plf2007-11-03.mtx.s2t10.flac:b27b5b1fb09c69fd878883af2b25c80e
plf2007-11-03.mtx.s2t11.flac:e689e2034f61df1824640a03bf5c74b8

Comments
Add Comment
Other Sources (comments)
1st set : rodes ntg-1's... (0) Source: Schoeps mk41v... (0) Source: Schoeps mk4 (DIN)>... (0) ***24 bit*** Source:... (0) FREE SOUNDBOARD (0) Master Audience Cassettes;... (0)
Date User Comment