Browse Collections Artists Sources   Search Dates

Add Show    List Management    Help


Ratdog 08/22/95
State Theatre, Portland, ME
Comments Add Comment    Source Collectors    Add to Collection    Add to Want List    History
Source # 93946 Other Sources
Entered by
Checksums ffp
Disc Counts 1 / 2
Media Size
Uncompressed: 976.73 MB (1024174488 bytes)
Date Circulated
Date Added
08/12/2008
08/11/2008
Source Summary source: (fob) Sonic Studios -> Sony D7. recorded by: Steve Barrett. transfer: dat (clone) -> DA-20mkII -> AR coax -> Audiophile 24/96 -> Wavelab 5.0 -> CD Wave -> FLAC(6). transfer: Chris Davis (8/11/08). dat provided by: Dave Flaschner 
Source Information - Download Text | Download Zip
Ratdog
State Theater
Portland, ME
August 22, 1995

source:  (fob) Sonic Studios -> Sony D7
recorded by:  Steve Barrett
dat provided by:  Dave Flaschner

transfer:  dat (clone) -> DA-20mkII -> AR coax -> Audiophile 24/96 -> Wavelab 5.0 -> CD Wave -> FLAC(6)
transfer:  Chris Davis (8/11/08)

One Set:

Disc 1:        (53:57)
01.  (01:15)   ...Festival*+
02.  (04:25)   Take Me to the River
03.  (03:23)   Youngblood
04.  (04:43)   Fever ->
05.  (08:01)   Eternity
06.  (03:17)   Twilight Time
07.  (03:01)   K.C. Moan
08.  (05:13)   Masterpiece
09.  (04:37)   Good Morning Little Schoolgirl
10.  (04:31)   This Time Forever ->
11.  (05:13)   Shade of Gray ->
12.  (06:18)   Heaven Help the Fool

Disc 2:        (42:41)
01.  (13:36)   Bass/Drums ->
02.  (06:14)   Victim or the Crime ->
03.  (08:53)   Throwing Stones
04.  (01:59)   crowd/tuning

Encore:
05.  (06:14)   Little Red Rooster
06.  (05:45)   Knockin' on Heaven's Door

*Festival fades in.  Bombs Away missing.
+first Festival.

length     expanded size    cdr  WAVE problems  fmt   ratio  filename
     1:15.07       13246508 B   ---   --   ---xx   flac  0.5958  rd1995-08-22d1t01.flac
     4:25.29       46814252 B   ---   --   ---xx   flac  0.6123  rd1995-08-22d1t02.flac
     3:23.53       35933900 B   ---   --   ---xx   flac  0.5977  rd1995-08-22d1t03.flac
     4:43.47       50031788 B   ---   --   ---xx   flac  0.5130  rd1995-08-22d1t04.flac
     8:01.27       84911948 B   ---   --   ---xx   flac  0.5521  rd1995-08-22d1t05.flac
     3:17.29       34819052 B   ---   --   ---xx   flac  0.4613  rd1995-08-22d1t06.flac
     3:01.26       31989596 B   ---   --   ---xx   flac  0.5435  rd1995-08-22d1t07.flac
     5:13.28       55279100 B   ---   --   ---xx   flac  0.5495  rd1995-08-22d1t08.flac
     4:37.41       48959276 B   ---   --   ---xx   flac  0.5586  rd1995-08-22d1t09.flac
     4:31.54       47931452 B   ---   --   ---xx   flac  0.4615  rd1995-08-22d1t10.flac
     5:13.03       55220300 B   ---   --   ---xx   flac  0.5520  rd1995-08-22d1t11.flac
     6:18.00       66679244 B   ---   --   ---xx   flac  0.5867  rd1995-08-22d1t12.flac
    13:36.60      144083564 B   ---   --   ---xx   flac  0.5108  rd1995-08-22d2t01.flac
     6:14.52       66095948 B   ---   --   ---xx   flac  0.5441  rd1995-08-22d2t02.flac
     8:53.17       94061228 B   ---   --   ---xx   flac  0.5998  rd1995-08-22d2t03.flac
     1:59.33       21069260 B   ---   --   ---xx   flac  0.5767  rd1995-08-22d2t04.flac
     6:14.31       66046556 B   ---   --   ---xx   flac  0.5826  rd1995-08-22d2t05.flac
     5:45.61       61001516 B   ---   --   ---xx   flac  0.4952  rd1995-08-22d2t06.flac
    96:45.73     1024174488 B                            0.5471  (18 files)

Show Checksums
ffp
rd1995-08-22d1t01.flac:1ce0dd9c7275d280b47bf962bac893b7
rd1995-08-22d1t02.flac:a31132b098da246116b6b14adad20e39
rd1995-08-22d1t03.flac:eceb180d9680e0853d2e34de30e9692c
rd1995-08-22d1t04.flac:973fe12184368639838e6f89f757adc7
rd1995-08-22d1t05.flac:1c410d4a9dd6dcfe2793e4ea2420cb20
rd1995-08-22d1t06.flac:03db591c86bd244f0cd5574ff36cd5b5
rd1995-08-22d1t07.flac:fce5af0bb25285ccd49d5cd20d82dfae
rd1995-08-22d1t08.flac:16f0a387c00368465a89a361246b7e3a
rd1995-08-22d1t09.flac:9e593f5fb8721a062b49f3f8e5077d15
rd1995-08-22d1t10.flac:4f966d55cd4482526f7dd2a37b2e6063
rd1995-08-22d1t11.flac:12a60dc534869ddc4874ded5f81bbd71
rd1995-08-22d1t12.flac:69b3251bad268ae22e1443e413385c1d
rd1995-08-22d2t01.flac:1a4c2a8ddb25dea5029e8031295ca58e
rd1995-08-22d2t02.flac:0f1efb5f018cbd4ec8d7a6c406703bdd
rd1995-08-22d2t03.flac:c93097e55be2795b7f752449c2f8c628
rd1995-08-22d2t04.flac:8054d63e62e0eb34a68a3c0bc0dcff27
rd1995-08-22d2t05.flac:dd9544f7a8490d08d3d4015bc21fa20c
rd1995-08-22d2t06.flac:24f5be7aae19f583de5c83875f630df0

Comments
Add Comment
Date User Comment