Browse Collections Artists Sources   Search Dates

Add Show    List Management    Help


Grateful Dead 02/27/90
Oakland-Alameda County Coliseum, Oakland, CA
Comments Add Comment    Source Collectors    Add to Collection    Add to Want List    History
Source # 93955 Other Sources
Entered by Matt Vernon
Checksums ffp , flac-md5
Disc Counts 2 / 3
Media Size
Date Circulated
Date Added
08/11/2008
08/11/2008
Source Summary flac16; FOB AUD: Sennheiser MD-421's > Sony TC-D5M > TDK MA (1st Set), TDK MA-XG (2nd Set), with no Dolby. Mics on six-foot stand, at 90-degree spread, thirty feet from the stage, in the center. Taped by Alabama Bob. Transfer: MAC > Nakamichi DR-8 (no Dolby) > Audiophile 2496 > Soundforge > CD-Wave > TLH > FLAC. Transfer by Andrew F. 
  Archive
Source Information - Download Text | Download Zip
GRATEFUL DEAD
Coliseum Arena
Oakland CA
02-27-1990

Disc One (64:13)

01 crowd & tuning
02 Let the Good Times Roll
03 Feel Like a Stranger
04 Sugaree
05 Victim or the Crime
06 Mississippi Half Step
07 When I Paint My Masterpiece
08 Birdsong
-- set break --

Disc Two (46:42)

01 //Drums & Mardi Gras Parade* >
02 Iko Iko* >
03 Women Are Smarter*
04 Standing on the Moon >
05 Truckin' >
06 Spoonful >
07 Drums//

Disc Three (48:55)

01 Drums continued >
02 Space >
03 The Other One >
04 Morning Dew >
05 Throwing Stone//s >
06 Not Fade Away
-- encore --
07 And We Bid You Goodnight

* with Michael Doucet & Beausoleil

FOB AUD: Sennheiser MD-421's > Sony TC-D5M > TDK MA (1st Set),
TDK MA-XG (2nd Set), with no Dolby. Mics on six-foot stand, at
90-degree spread, thirty feet from the stage, in the center.
Taped by Alabama Bob.  

Transfer: MAC > Nakamichi DR-8 (no Dolby) > Audiophile 2496 >
Soundforge > CD-Wave > TLH > FLAC. Transfer by Andrew F.

Notes:
- Mardi Gras Parade cuts in, several minutes missing.
- 2nd Set disc break occurs where the MAC tape was flipped.
- Tape flip at end of T.Stones, mended together at 9:20.593.

    length     expanded size    cdr  WAVE problems  fmt   ratio  filename
     1:18.52       13881548 B   ---   --   ---xx   flac  0.5257  gd1990-02-27d1t01.flac
     4:30.51       47747996 B   ---   --   ---xx   flac  0.6097  gd1990-02-27d1t02.flac
     8:28.06       89625356 B   ---   --   ---xx   flac  0.6094  gd1990-02-27d1t03.flac
    10:58.45      116177084 B   ---   --   ---xx   flac  0.6010  gd1990-02-27d1t04.flac
     9:38.32      102034508 B   ---   --   ---xx   flac  0.5887  gd1990-02-27d1t05.flac
     9:08.37       96754268 B   ---   --   ---xx   flac  0.5995  gd1990-02-27d1t06.flac
     5:22.44       56904332 B   ---   --   ---xx   flac  0.5955  gd1990-02-27d1t07.flac
    14:47.39      156558572 B   ---   --   ---xx   flac  0.5967  gd1990-02-27d1t08.flac
     1:51.58       19716860 B   ---   --   ---xx   flac  0.6040  gd1990-02-27d2t01.flac
     9:36.59      101745212 B   ---   --   ---xx   flac  0.6148  gd1990-02-27d2t02.flac
     7:45.23       82080140 B   ---   --   ---xx   flac  0.6179  gd1990-02-27d2t03.flac
     8:35.07       90862508 B   ---   --   ---xx   flac  0.5960  gd1990-02-27d2t04.flac
     6:34.19       69546332 B   ---   --   ---xx   flac  0.6432  gd1990-02-27d2t05.flac
     5:27.70       57847484 B   ---   --   ---xx   flac  0.6031  gd1990-02-27d2t06.flac
     6:51.36       72585116 B   ---   --   ---xx   flac  0.5713  gd1990-02-27d2t07.flac
     5:59.33       63405260 B   ---   --   ---xx   flac  0.5209  gd1990-02-27d3t01.flac
     6:20.40       67126124 B   ---   --   ---xx   flac  0.5282  gd1990-02-27d3t02.flac
     7:05.02       74974748 B   ---   --   ---xx   flac  0.5952  gd1990-02-27d3t03.flac
    10:52.65      115165724 B   ---   --   ---xx   flac  0.5834  gd1990-02-27d3t04.flac
     9:31.17      100764428 B   ---   --   ---xx   flac  0.6009  gd1990-02-27d3t05.flac
     6:31.27       69035948 B   ---   --   ---xx   flac  0.5904  gd1990-02-27d3t06.flac
     2:34.68       27325580 B   ---   --   ---xx   flac  0.6118  gd1990-02-27d3t07.flac
   159:51.05     1691865128 B                            0.5940  (22 files)

No errors occured.
Show Checksums
ffp
gd1990-02-27d1t01.flac:373e75f32a12ced1b604641f8fee4536
gd1990-02-27d1t02.flac:0f16384c2edaaabd896220d59d688f21
gd1990-02-27d1t03.flac:e71d6f3394eea4bc78193d1fc8c3560c
gd1990-02-27d1t04.flac:39af7e613fd6be59f0adaa2ade28a069
gd1990-02-27d1t05.flac:075fabcad1f09a6b2d39d3e9d22411dc
gd1990-02-27d1t06.flac:790ed15207a846bd2b938e4b678feb8f
gd1990-02-27d1t07.flac:957cca7d0a9ea9834daec9ffdc0c2c2b
gd1990-02-27d1t08.flac:1a08f60333d1f3ad5b7eeb48b217824a
gd1990-02-27d2t01.flac:7fff2ab5299f2c6d5cb789dd59f54829
gd1990-02-27d2t02.flac:346a81dd3f371c0fb85efa582ce03aa9
gd1990-02-27d2t03.flac:2f9ad0728888f88f1a887c74e580aa10
gd1990-02-27d2t04.flac:e2cfe0892a53c456108f527c1d2b9492
gd1990-02-27d2t05.flac:ac26c060e13b8ab2a76826c697f2a70f
gd1990-02-27d2t06.flac:0264c75ea9da737f5e6bb9f4a1ccd4e0
gd1990-02-27d2t07.flac:b0fa4479e6022e3189b77b793242faaa
gd1990-02-27d3t01.flac:8f0108bdac321e10b42ea2288f799aa4
gd1990-02-27d3t02.flac:1a5c31ebdd13a57fef21119df5b0272d
gd1990-02-27d3t03.flac:d06140b73e9fc14ffe85272c5fc4b7d4
gd1990-02-27d3t04.flac:c4809181326abf72ac76592dd59692c1
gd1990-02-27d3t05.flac:c714c704fe1e570becc78cacab302d96
gd1990-02-27d3t06.flac:a05de9f8243b42e75bc427947f1daf77
gd1990-02-27d3t07.flac:0bef88c58f8a016a1ddebf327357e176
flac-md5
c4adac38963e43a172b253b5f9c8d006 *gd1990-02-27d1t01.flac
1f1c541355060ff3e4fb9e5534b4b22f *gd1990-02-27d1t02.flac
f6d2dee1fdbaa61094ddc0e81b8cb7cc *gd1990-02-27d1t03.flac
ffd1ff5b776f8b56a93138dddf153b5a *gd1990-02-27d1t04.flac
517a70c80c6d97c47075ffa59bb3964c *gd1990-02-27d1t05.flac
8b9fe666aad62e8b4aba4823c65a7e93 *gd1990-02-27d1t06.flac
a3bf99c6cfd3301388050d186f453003 *gd1990-02-27d1t07.flac
b3219137491d9557d570bddabea9f3e6 *gd1990-02-27d1t08.flac
68bbc2e88c4471ebacc4d844284df866 *gd1990-02-27d2t01.flac
325a86e6374ac640fc9d5a7b153a2cbe *gd1990-02-27d2t02.flac
b72c35046025a21003a74e97e633f47c *gd1990-02-27d2t03.flac
56d9780b6e079df82e401d3af5687e68 *gd1990-02-27d2t04.flac
47ce456ffefb11a877d5f6e6d9e3ebcb *gd1990-02-27d2t05.flac
8ca7e189d1617cee54872a4521f40d66 *gd1990-02-27d2t06.flac
eec0ab5370d8142a7320fdd30aaca664 *gd1990-02-27d2t07.flac
9ba1d076d3b7c9f8504478f6095e9646 *gd1990-02-27d3t01.flac
d572ff9d63743b0e0435ec07142bc5fb *gd1990-02-27d3t02.flac
6a9c5bb3abfd3880838dfc35b539462d *gd1990-02-27d3t03.flac
575f958a47f92b3d847bf3e0565eab1c *gd1990-02-27d3t04.flac
c3f99b20cfa1f8888f7fd85d3be3a6f8 *gd1990-02-27d3t05.flac
e50f5dca2aabeff3a5de509261c0569b *gd1990-02-27d3t06.flac
ca73cf55d00f1365bb67fabd33443d43 *gd1990-02-27d3t07.flac

Comments
Add Comment
Other Sources (comments)
SBD > DAT > CDR > WAV >... (2) flac24; Set One... (0) flac16; Set One... (0) flac16; FOB Digital... (0) flac16/48kHz;... (0) flac16/48kHz;... (0)
Date User Comment
09/28/2008 bamabob An great FOB, Phil was thumpin and Jerry was a wailin- Yeah GET IT!!