Browse Collections Artists Sources   Search Dates

Add Show    List Management    Help


Grateful Dead 03/31/83
Warfield Theater, San Francisco, CA
Comments Add Comment    Source Collectors    Add to Collection    Add to Want List    History
Source # 94016 Other Sources
Entered by Matt Vernon
Checksums flac-md5 , ffp
Disc Counts 2 / 2
Media Size
Date Circulated
Date Added
08/15/2008-08/16/200
08/15/2008
Source Summary flac16; Matrix by Hunter Seamons using Final Cut Pro (SHN & FLAC>AIFF>Final Cut>WAV>FLAC) 
  Archive
Source Information - Download Text | Download Zip
Grateful Dead
Warfield Theatre
San Francisco, CA
March 31, 1983


*Matrix*

----------------------------------------------------
SBD:

Recording Info:
SBD -> Cassette Master (Dolby B)

Transfer Info:
Cassette Master (Nakamichi DR-1/Dolby B) -> Sony R500 (Pass Through) ->
SEK'D Prodif Plus -> Samplitude Professional v8.01 -> FLAC
(2 Discs Audio / 2 Discs FLAC)

All Transfers and Mastering By Charlie Miller
Post Processing by David Minches
[email protected]
April 28, 2006

----------------------------------------------------
AUD:

Recording Info:
(FOB) Sennheiser 421 -> Cm (Sony D5) -> Dat

Transfer Info:
Dat (Sony R500) -> Samplitude v6.0 -> CD -> EAC -> SHN
2 Discs SHN / 2 Discs Audio

All transfers done by Charlie Miller
[email protected]
shn conversion done 5/22/03

---------------------------------------------------
Thank you to Charlie Miller for the SBD and AUD transfers.

Matrix by Hunter Seamons using Final Cut Pro (SHN & FLAC>AIFF>Final Cut>WAV>FLAC)
August 15, 2008


Set 1
-----
d1t01 - Feel Like A Stranger
d1t02 - Friend Of The Devil ->
d1t03 - Little Red Rooster
d1t04 - Dupree's Diamond Blues
d1t05 - Me And My Uncle ->
d1t06 - Big River
d1t07 - West L.A. Fadeaway
d1t08 - My Brother Esau
d1t09 - Don't Ease Me In

Set 2
-----
d1t10 - Lost Sailor ->
d1t11 - Saint Of Circumstance ->
d1t12 - Far From Me
d2t01 - Terrapin Station ->
d2t02 - Drums ->
d2t03 - Space ->
d2t04 - The Other One ->
d2t05 - Throwing Stones ->
d2t06 - Wharf Rat ->
d2t07 - Around And Around ->
d2t08 - Good Lovin'

Encore
------
d2t09 - Brokedown Palace


Notes:

1) One momentary cut in the AUD during Drums into Space. One brief cut in the SBD during Space.

2) Fades were used to create a "seamless" AUD track.

3) There are several atomic Phil bombs during Terrapin and Other One.

4) Jerry Garcia on "matrix" recording in 1981 regarding the Dead Set and Reckoning albums:

"It's a remarkable process that gives [the recording] a three-dimensionality that is uncanny - it really does...It's actually superimposed, the best of both worlds: the close mic sound of being right on stage, you know, and the thing of being in the room and the way the room, what the room does - those things superimposed on each other, you know, in various relationships. It's pretty much like being there."


    length     expanded size    cdr  WAVE problems  fmt   ratio  filename
     8:15.32       87393308 B   ---   --   ---xx  gd83-03-31d1t01.flac
     8:50.02       93496748 B   ---   --   ---xx  gd83-03-31d1t02.flac
     9:02.18       95651180 B   ---   --   ---xx  gd83-03-31d1t03.flac
     5:01.50       53214044 B   ---   --   ---xx  gd83-03-31d1t04.flac
     3:02.31       32177756 B   ---   --   ---xx  gd83-03-31d1t05.flac
     5:44.56       60813356 B   ---   --   ---xx  gd83-03-31d1t06.flac
     6:36.15       69889724 B   ---   --   ---xx  gd83-03-31d1t07.flac
     6:08.58       65051660 B   ---   --   ---xx  gd83-03-31d1t08.flac
     3:16.27       34637948 B   ---   --   ---xx  gd83-03-31d1t09.flac
     7:04.07       74810108 B   ---   --   ---xx  gd83-03-31d1t10.flac
     6:43.52       71211548 B   ---   --   ---xx  gd83-03-31d1t11.flac
     4:19.62       45833468 B   ---   --   ---xx  gd83-03-31d1t12.flac
    12:44.70      134934284 B   ---   --   ---xx  gd83-03-31d2t01.flac
     7:41.72       81489788 B   ---   --   ---xx  gd83-03-31d2t02.flac
     7:24.04       78331052 B   ---   --   ---xx  gd83-03-31d2t03.flac
     6:06.07       64578908 B   ---   --   ---xx  gd83-03-31d2t04.flac
     7:39.02       80972348 B   ---   --   ---xx  gd83-03-31d2t05.flac
     9:18.35       98513564 B   ---   --   ---xx  gd83-03-31d2t06.flac
     3:56.07       41646908 B   ---   --   ---xx  gd83-03-31d2t07.flac
     8:28.58       89747660 B   ---   --   ---xx  gd83-03-31d2t08.flac
     5:18.20       56142284 B   ---   --   ---xx  gd83-03-31d2t09.flac
   142:43.10     1510537644 B                            0.6109  (21 files)


  
Show Checksums
flac-md5
ec0d4a44baed79bd58d00854f0cb1e23 *gd83-03-31d1t01.flac
979ae04b39a4292ac046026155c96d96 *gd83-03-31d1t02.flac
2d30f11fe0bb8eee523b281345fa72a3 *gd83-03-31d1t03.flac
dc6c778f1d196cdec748caf28367d383 *gd83-03-31d1t04.flac
4b89268d673f739477e38baa0d8ef560 *gd83-03-31d1t05.flac
fd6408e8c1e1cf52b084a17a4e68435b *gd83-03-31d1t06.flac
8973042d058650d956b1f1f4baf64002 *gd83-03-31d1t07.flac
9a89f8dc78c5cbad8ce6373690b92455 *gd83-03-31d1t08.flac
f6c8e5e4d429d25f2015e7a00fd51118 *gd83-03-31d1t09.flac
ac3873fa38a4c7a89e9bb6f5bfc72aad *gd83-03-31d1t10.flac
95d537c7f8f4d2ac3163030555ea2a6d *gd83-03-31d1t11.flac
9f181c5e155510dc43b581e5f26e4d45 *gd83-03-31d1t12.flac
329b8c4f0d62e1a5d2529580994fb198 *gd83-03-31d2t01.flac
0b0910e418efea31c9d97ba63b3b0546 *gd83-03-31d2t02.flac
854406ece3e66c46f18717d71381081f *gd83-03-31d2t03.flac
469ed111f90f11709fb84a1da4142af7 *gd83-03-31d2t04.flac
6d66bbb8828c7c7d93a6cd6496b8a0a5 *gd83-03-31d2t05.flac
b7b679a364ad0c9acc93ccb2a164dde9 *gd83-03-31d2t06.flac
94b80b4782477d121f598bfb4602e6db *gd83-03-31d2t07.flac
66cb091661cfe38896bc7a7a4bc668e1 *gd83-03-31d2t08.flac
8aafdf0ee45670c285196c1ec490e997 *gd83-03-31d2t09.flac
ffp
gd83-03-31d1t01.flac:20cf5ca3122ed55e4f9a916ff6ee0cf9
gd83-03-31d1t02.flac:59769955691f9fe272ed693486f0140f
gd83-03-31d1t03.flac:4617595947b31af70fe3ebdd58feafbf
gd83-03-31d1t04.flac:fe8329503d140b9141a567a3829fbd5d
gd83-03-31d1t05.flac:62f4b99593686ac1c20e09c83cee3a6d
gd83-03-31d1t06.flac:e3301b671879475751c1dca4ff538d87
gd83-03-31d1t07.flac:33d2b85f38d611a3bf7122b7ad3e8288
gd83-03-31d1t08.flac:6da861b56b4bbdc2e41a12295c842b01
gd83-03-31d1t09.flac:116ba7aede0ebb0707236e487a7bcd48
gd83-03-31d1t10.flac:ebd139bdeb8388fdb54dc13ada24f119
gd83-03-31d1t11.flac:54e1ad2e9f7239ac18d0f528f5d7d260
gd83-03-31d1t12.flac:b99f03ffebf5a834235b1655c27ed569
gd83-03-31d2t01.flac:b6f0975338c7f66e924328d9d15e44c2
gd83-03-31d2t02.flac:48f5d89e49782732a7582b4eec597c8f
gd83-03-31d2t03.flac:4b08bfb08d626397cbcc9a8a94031d67
gd83-03-31d2t04.flac:e9785c297b649b6e06e9b5c81b7f10f2
gd83-03-31d2t05.flac:d8a21e07a9f05c03708d1d9c2c3f1cd9
gd83-03-31d2t06.flac:625b5552fe973afcfda45c10f67c192e
gd83-03-31d2t07.flac:aacce3dc04ad4d544d668b9dfccb1e20
gd83-03-31d2t08.flac:ac1989e257d87e49b0970810c4389822
gd83-03-31d2t09.flac:a8240d83a54aeda271a2958e2c3c1105

Comments
Add Comment
Other Sources (comments)
(FOB) Sennheiser 421 -> Cm... (0) SBD > C(x5) > Sony TC-D5M >... (2) flac16; SBD ->... (0) flac16; SBD ->... (0)
Date User Comment
08/15/2008 hseamons Sorry: should read March 31.