Browse Collections Artists Sources   Search Dates

Add Show    List Management    Help


Grateful Dead 10/02/87
Shoreline Amphitheatre, Mountain View, CA
Comments Add Comment    Source Collectors    Add to Collection    Add to Want List    History
Source # 94115 Other Sources
Entered by Matt Vernon
Checksums flac-md5 , st5 , ffp
Disc Counts 2 / 2
Media Size
Date Circulated
Date Added
08/22/2008
08/21/2008
Source Summary flac16; Hat Mounted realistic pzm's w/D6,100 feet away ,Right of center MAC>D6>HD>Audacity>CDWave>TLH Recorded and transfered by Russ Cansler 
  Archive
Source Information - Download Text | Download Zip
Grateful Dead on Friday, October 2nd,1987
Shoreline Amphitheatre
Mountain View,California,USA

Hat mounted realistic pzm's with
Sony WMD6-C
100 feet away ,right of center
section 201 row M seat16
Maxell MX 90 Cnr

Master>D6(nr off)>HD>Audacity>CDWave>TLH>Torrent
Recorded and transfered by Russ Cansler

   CD 1  set 1
    Cold Rain and Snow (Not recorded)
01) /The Red Rooster
02) tuning
03) Stagger Lee
04) Me and My Uncle
05) Mexicali Blues
06) Row Jimmy
07) Far From Me
08) Let It Grow
   total 46:30

   CD 2 set 2
01) tuning
02) China Cat Sunflower
03) I Know you Rider
04) Man Smart( Woman Smarter)
05) Ship of Fools
06) Truckin'
07) Drums
08) Drums 09) Space
10) The Wheel
11) Gimme Some Lovin
12) All Along The Watchtower
13) Don't Ease Me In
14) encore tuning
15) Black Muddy River
   total 78:44

notes:First Shoreline Show
stealth recording, some close yells
Let It Grow  is stand out performance
accurate recording of how it sounds in the bowl,Not that loud

shntool 3.0.4
Copyright (C) 2000-2007 Jason Jordan

    length     expanded size    cdr  WAVE problems  fmt   ratio  filename
     2:13.35       23543564 B   ---   --   ---xx   flac  0.5619  gd1987.10.02.d1t01.flac
     0:13.35        2375564 B   ---   --   ---xx   flac  0.5111  gd1987.10.02.d1t02.flac
     6:47.47       71905388 B   ---   --   ---xx   flac  0.5632  gd1987.10.02.d1t03.flac
     3:04.04       32467052 B   ---   --   ---xx   flac  0.5880  gd1987.10.02.d1t04.flac
     5:55.44       62725532 B   ---   --   ---xx   flac  0.5724  gd1987.10.02.d1t05.flac
    10:41.26      113133596 B   ---   --   ---xx   flac  0.5598  gd1987.10.02.d1t06.flac
     4:33.49       48272492 B   ---   --   ---xx   flac  0.5885  gd1987.10.02.d1t07.flac
    12:59.60      137556764 B   ---   --   ---xx   flac  0.5858  gd1987.10.02.d1t08.flac
     0:30.73        5463740 B   ---   --   ---xx   flac  0.5415  gd1987.10.02.d2t01.flac
     3:18.61       35070716 B   ---   --   ---xx   flac  0.5842  gd1987.10.02.d2t02.flac
     7:53.67       83594828 B   ---   --   ---xx   flac  0.6021  gd1987.10.02.d2t03.flac
     8:00.40       84766124 B   ---   --   ---xx   flac  0.5976  gd1987.10.02.d2t04.flac
     7:54.71       83780636 B   ---   --   ---xx   flac  0.5671  gd1987.10.02.d2t05.flac
     9:28.10      100218764 B   ---   --   ---xx   flac  0.5834  gd1987.10.02.d2t06.flac
     3:35.62       38071868 B   ---   --   ---xx   flac  0.5668  gd1987.10.02.d2t07.flac
     4:35.34       48590012 B   ---   --   ---xx   flac  0.5164  gd1987.10.02.d2t08.flac
     7:27.34       78930812 B   ---   --   ---xx   flac  0.5377  gd1987.10.02.d2t09.flac
     4:53.65       51838124 B   ---   --   ---xx   flac  0.5858  gd1987.10.02.d2t10.flac
     4:54.47       51972188 B   ---   --   ---xx   flac  0.6088  gd1987.10.02.d2t11.flac
     6:13.39       65888972 B   ---   --   ---xx   flac  0.6146  gd1987.10.02.d2t12.flac
     3:32.66       37552076 B   ---   --   ---xx   flac  0.6037  gd1987.10.02.d2t13.flac
     0:11.05        1952204 B   ---   --   ---xx   flac  0.5280  gd1987.10.02.d2t14.flac
     6:10.67       65425628 B   ---   --   ---xx   flac  0.5783  gd1987.10.02.d2t15.flac
   125:11.66     1325096644 B                            0.5779  (23 files)
Show Checksums
flac-md5
cf9e8afd7e83e8ee754ba060c8754e34 *gd1987.10.02.d1t01.flac
a7fa0c1a1bb76a7f7931169bfa03d385 *gd1987.10.02.d1t02.flac
0dd5d801cdd055dbe9bc1def48a10812 *gd1987.10.02.d1t03.flac
a88ae89be966878f30fa6c1412b5c0d7 *gd1987.10.02.d1t04.flac
05c888700d5cdbd35011cd146fe2676c *gd1987.10.02.d1t05.flac
661fef83e3c9a58dc49986d7b9217da0 *gd1987.10.02.d1t06.flac
7ac77ec650a64cce01b12467f30c89c6 *gd1987.10.02.d1t07.flac
31b8275f1568706a771f9c5e05dc49cd *gd1987.10.02.d1t08.flac
70ec0b34b0088d128a9809d3ebe4b3e6 *gd1987.10.02.d2t01.flac
61d82e1118449dc41cea2dbe7dd4bea8 *gd1987.10.02.d2t02.flac
4c7f37fbbcced7ea7a28ad22acb5714b *gd1987.10.02.d2t03.flac
59b3f35e696f3cf834a949a9c69dbc8e *gd1987.10.02.d2t04.flac
2c40fcbcea50df6ef21992f4204c0e53 *gd1987.10.02.d2t05.flac
aaf11850b8460316fd5fbdb4b3096cd2 *gd1987.10.02.d2t06.flac
8b9b96ce694e2d7a1559596826b93b78 *gd1987.10.02.d2t07.flac
c287696d3ab1606e159f167a338fd9ca *gd1987.10.02.d2t08.flac
b06c14c0d5580679545f8cf090c913e9 *gd1987.10.02.d2t09.flac
0b7523985cc72b584f898d5d39bb8f3e *gd1987.10.02.d2t10.flac
dd2389650c48768dbc66869f1956c9ce *gd1987.10.02.d2t11.flac
eed94a3787272e5df3df3066347efb56 *gd1987.10.02.d2t12.flac
f0082b22c9efcbee93ebaf65cbcbb3d3 *gd1987.10.02.d2t13.flac
77351784bca9f8d4fa249a8e4cac0512 *gd1987.10.02.d2t14.flac
b23e93748f4311acd44919dfb182eae6 *gd1987.10.02.d2t15.flac
st5
cc6841813ea194244e4a1ee3f54dd22a [shntool] gd1987.10.02.d1t01.flac
1c54e5b5712414afa75478bcb9803f75 [shntool] gd1987.10.02.d1t02.flac
27e2599250d0a33209abf430218730ae [shntool] gd1987.10.02.d1t03.flac
f0e95821ce34beacfc5f63ebd6cbb57e [shntool] gd1987.10.02.d1t04.flac
0108e7760859784af6d796ba379a25fa [shntool] gd1987.10.02.d1t05.flac
18d8d0e05bf9f406469699633dedc5e6 [shntool] gd1987.10.02.d1t06.flac
81b150f7a1a7a79db3ef1f0ac3e81de6 [shntool] gd1987.10.02.d1t07.flac
753aaecbd91aa16c3408bbef3e377b69 [shntool] gd1987.10.02.d1t08.flac
4f69e185ea4f414d9c2020a93d6169df [shntool] gd1987.10.02.d2t01.flac
bbb9eb9cccf96e0c08d7c8ce1a5800ca [shntool] gd1987.10.02.d2t02.flac
ce1751b30ef41c13d8996a086f8ea379 [shntool] gd1987.10.02.d2t03.flac
669b2c4d1be48570f86756a3dc93e53d [shntool] gd1987.10.02.d2t04.flac
53bbb63cf6b86966022d00db1bc9f2ed [shntool] gd1987.10.02.d2t05.flac
3204e5fb59643367562f87899b1841d7 [shntool] gd1987.10.02.d2t06.flac
8a8c565aff1c6d83800d283ca09c90a4 [shntool] gd1987.10.02.d2t07.flac
2307c7efcd60ab6f0279f7b3bc268e48 [shntool] gd1987.10.02.d2t08.flac
d9b2eccaf84bc051d0ceb2ece0d03df1 [shntool] gd1987.10.02.d2t09.flac
5ea77f1766733e00db10b5d96ca04617 [shntool] gd1987.10.02.d2t10.flac
08ca1186d9f07bfcd9ce3579fc8aadc3 [shntool] gd1987.10.02.d2t11.flac
a4b10ad3f81d4b58dd833b80da140744 [shntool] gd1987.10.02.d2t12.flac
4d4341a7df0bc2effc5046e276b13555 [shntool] gd1987.10.02.d2t13.flac
fe3dd60cd52497f7a125b96f8b6201e2 [shntool] gd1987.10.02.d2t14.flac
ce0ba91f62042454d88f9ca1a885d391 [shntool] gd1987.10.02.d2t15.flac
ffp
gd1987.10.02.d1t01.flac:cc6841813ea194244e4a1ee3f54dd22a
gd1987.10.02.d1t02.flac:1c54e5b5712414afa75478bcb9803f75
gd1987.10.02.d1t03.flac:27e2599250d0a33209abf430218730ae
gd1987.10.02.d1t04.flac:f0e95821ce34beacfc5f63ebd6cbb57e
gd1987.10.02.d1t05.flac:0108e7760859784af6d796ba379a25fa
gd1987.10.02.d1t06.flac:18d8d0e05bf9f406469699633dedc5e6
gd1987.10.02.d1t07.flac:81b150f7a1a7a79db3ef1f0ac3e81de6
gd1987.10.02.d1t08.flac:753aaecbd91aa16c3408bbef3e377b69
gd1987.10.02.d2t01.flac:4f69e185ea4f414d9c2020a93d6169df
gd1987.10.02.d2t02.flac:bbb9eb9cccf96e0c08d7c8ce1a5800ca
gd1987.10.02.d2t03.flac:ce1751b30ef41c13d8996a086f8ea379
gd1987.10.02.d2t04.flac:669b2c4d1be48570f86756a3dc93e53d
gd1987.10.02.d2t05.flac:53bbb63cf6b86966022d00db1bc9f2ed
gd1987.10.02.d2t06.flac:3204e5fb59643367562f87899b1841d7
gd1987.10.02.d2t07.flac:8a8c565aff1c6d83800d283ca09c90a4
gd1987.10.02.d2t08.flac:2307c7efcd60ab6f0279f7b3bc268e48
gd1987.10.02.d2t09.flac:d9b2eccaf84bc051d0ceb2ece0d03df1
gd1987.10.02.d2t10.flac:5ea77f1766733e00db10b5d96ca04617
gd1987.10.02.d2t11.flac:08ca1186d9f07bfcd9ce3579fc8aadc3
gd1987.10.02.d2t12.flac:a4b10ad3f81d4b58dd833b80da140744
gd1987.10.02.d2t13.flac:4d4341a7df0bc2effc5046e276b13555
gd1987.10.02.d2t14.flac:fe3dd60cd52497f7a125b96f8b6201e2
gd1987.10.02.d2t15.flac:ce0ba91f62042454d88f9ca1a885d391

Comments
Add Comment
Other Sources (comments)
SBD> CM> DAT> WAV (Ego Sys... (0) Jay Ashley (Bertha)... (0) SBD> CM> DAT> WAV> CD> EAC>... (0) flac16; Recording... (0) flac16; Recording... (0) flac16; Source Info:... (0) flac24; Recording... (0) flac16; Recording... (0)
Date User Comment
08/21/2008 Russjcan total cd1 46:30 total cd2 78:44