Browse Collections Artists Sources   Search Dates

Add Show    List Management    Help


Phish 08/15/04
Newport State Airport, Coventry, VT
Comments Add Comment    Source Collectors    Add to Collection    Add to Want List    History
Source # 94157 Other Sources
Entered by Jason Sobel
Checksums all_ffp
Disc Counts 3 / 4
Media Size
Date Circulated
Date Added
08/24/2008
08/23/2008
Source Summary AKG 483 -> V3 -> AD2K -> DA-P1; DA-20mkII -> Audiophile 24/96 -> Wavelab 5.0 -> CD Wave -> FLAC(6); Taped by Kenny Watts; Transferred by Chris Davis 
Source Information - Download Text | Download Zip
Phish
Newport State Airport
Coventry, VT
August 15, 2004

source:  AKG 483 -> V3 -> AD2K -> DA-P1
location:  right of SBD / stand @ 7'
recorded by:  Kenny Watts

transfer: dat (master) -> DA-20mkII -> AR coax -> Audiophile 24/96 -> Wavelab 5.0 -> CD Wave -> FLAC(6)
transfer: Chris Davis (08/23/08)

Disc 1:        (71:33)
Set 1:
01.  (09:20)   Mike's Song ->
02.  (02:31)   I Am Hydrogen ->
03.  (11:13)   Weekapaugh Groove
04.  (05:26)   Anything but Me
05.  (14:52)   Reba
06.  (05:54)   Carini ->
07.  (13:46)   Chalkdust Torture ->
08.  (08:31)   Possum ->


Disc 2:        (58:52)
Set 1(cont):
01.  (12:53)   Wolfman's Brother* ->
02.  (10:10)   Taste

Set 2:
03.  (01:02)   crowd
04.  (19:03)   Down with Disease** ->
05.  (07:10)   Wading in the Velvet Sea
06.  (04:17)   Glide
07.  (04:17)   Phish Speaks


Disc 3:        (78:28)      
Set 2(cont):
01.  (30:55)   Split Open and Melt ->
02.  (18:09)   Ghost

Set 3:
03.  (00:57)   crowd
04.  (06:44)   Fast Enough for You
05.  (15:03)   Seven Below*** ->
06.  (06:40)   Simple ->


Disc 4:        (62:11)
Set 3(cont):
01.  (09:25)   Piper ->
02.  (07:46)   Bruno**** ->
03.  (04:56)   Dickie Scotland*****
04.  (05:11)   Wilson ->
05.  (10:55)   Slave to the Traffic Light
06.  (02:00)   crowd

Encore:
07.  (03:55)   Trey Speaks
08.  (18:03)   The Curtain With

Notes:
*Trey and Mike bring out their mothers and do the 'sexy bump' dance with them. Then later, 'sandwich' their manager, John Paluska with it.
**Trey plays his guitar with a glowstick.
***with "Seven Below" chant
****The band spontaneously writes a song to acknowledge their monitor engineer Mark "Bruno" Bradley. Other crew acknowledgements.
*****Same as above, but for Richard "Dickie Scotland" Glasgow.


    length     expanded size    cdr  WAVE problems  fmt   ratio  filename
     9:20.19       98828732 B   ---   --   ---xx   flac  0.5444  ph2004-08-15d1t01.flac
     2:31.47       26746988 B   ---   --   ---xx   flac  0.5060  ph2004-08-15d1t02.flac
    11:13.27      118780748 B   ---   --   ---xx   flac  0.5245  ph2004-08-15d1t03.flac
     5:26.72       57675788 B   ---   --   ---xx   flac  0.4513  ph2004-08-15d1t04.flac
    14:52.68      157508780 B   ---   --   ---xx   flac  0.5060  ph2004-08-15d1t05.flac
     5:54.65       62598524 B   ---   --   ---xx   flac  0.5744  ph2004-08-15d1t06.flac
    13:46.27      145769948 B   ---   --   ---xx   flac  0.5463  ph2004-08-15d1t07.flac
     8:31.48       90253340 B   ---   --   ---xx   flac  0.5497  ph2004-08-15d1t08.flac
    12:53.50      136474844 B   ---   --   ---xx   flac  0.4955  ph2004-08-15d2t01.flac
    10:10.09      107625212 B   ---   --   ---xx   flac  0.5262  ph2004-08-15d2t02.flac
     1:02.58       11073260 B   ---   --   ---xx   flac  0.3959  ph2004-08-15d2t03.flac
    19:03.73      201796940 B   ---   --   ---xx   flac  0.5440  ph2004-08-15d2t04.flac
     7:10.31       75924956 B   ---   --   ---xx   flac  0.4930  ph2004-08-15d2t05.flac
     4:17.74       45508892 B   ---   --   ---xx   flac  0.4736  ph2004-08-15d2t06.flac
     4:17.61       45478316 B   ---   --   ---xx   flac  0.4146  ph2004-08-15d2t07.flac
    30:55.12      327250268 B   ---   --   ---xx   flac  0.5513  ph2004-08-15d3t01.flac
    18:09.57      192233708 B   ---   --   ---xx   flac  0.5461  ph2004-08-15d3t02.flac
     0:57.64       10205372 B   ---   --   ---xx   flac  0.4145  ph2004-08-15d3t03.flac
     6:44.41       71362076 B   ---   --   ---xx   flac  0.5135  ph2004-08-15d3t04.flac
    15:03.44      159392732 B   ---   --   ---xx   flac  0.5299  ph2004-08-15d3t05.flac
     6:40.69       70722332 B   ---   --   ---xx   flac  0.5545  ph2004-08-15d3t06.flac
     9:25.46       99774236 B   ---   --   ---xx   flac  0.5936  ph2004-08-15d4t01.flac
     7:46.45       82308284 B   ---   --   ---xx   flac  0.5351  ph2004-08-15d4t02.flac
     4:56.59       52353212 B   ---   --   ---xx   flac  0.5160  ph2004-08-15d4t03.flac
     5:11.09       54881612 B   ---   --   ---xx   flac  0.5361  ph2004-08-15d4t04.flac
    10:55.00      115542044 B   ---   --   ---xx   flac  0.5144  ph2004-08-15d4t05.flac
     2:00.24       21224492 B   ---   --   ---xx   flac  0.4534  ph2004-08-15d4t06.flac
     3:55.14       41486972 B   ---   --   ---xx   flac  0.3901  ph2004-08-15d4t07.flac
    18:03.02      191045948 B   ---   --   ---xx   flac  0.4894  ph2004-08-15d4t08.flac
   271:20.15     2871828556 B                            0.5241  (29 files)
Show Checksums
all_ffp
ph2004-08-15d1t01.flac:b2035ed9a703aef0c28bea1800bf807d
ph2004-08-15d1t02.flac:f45b61b1b44836589392efa0f999f579
ph2004-08-15d1t03.flac:cea5fd7244446fdc95ce50e7d9d0927c
ph2004-08-15d1t04.flac:9bc5e8a54ff099fb9abeafe55795570f
ph2004-08-15d1t05.flac:47dc8696f17a3a115e7a917199dbc20a
ph2004-08-15d1t06.flac:d656fb124b7acf2c74f8831d04a11f55
ph2004-08-15d1t07.flac:ea7a2f9543a33b52433f7e27361e1f2f
ph2004-08-15d1t08.flac:7b00717673f58ef5ea39a04ec6559b41
ph2004-08-15d2t01.flac:7d5946fdbefd92d6ccd69f004bcd68cd
ph2004-08-15d2t02.flac:13c9b5c66121cae28de98af1ab628b26
ph2004-08-15d2t03.flac:21cf182a36d4d829bce6ed3802f55a64
ph2004-08-15d2t04.flac:b41aa3cc4c79a4e989654affd32b67c7
ph2004-08-15d2t05.flac:06cbfe0c63b156dad06b59ed9c00c409
ph2004-08-15d2t06.flac:cf669cbc2602656ae62749d81da889e6
ph2004-08-15d2t07.flac:09f9bd6aa03adbced33c6389588ad50a
ph2004-08-15d3t01.flac:dc5d375c3073d5387081a64d31cf56bf
ph2004-08-15d3t02.flac:88e64a6613204c6e0752db5dfbfe6734
ph2004-08-15d3t03.flac:dee272009ab425ddd41d1f08821d458c
ph2004-08-15d3t04.flac:3d55c129e1872072bb14ad13044675f3
ph2004-08-15d3t05.flac:9282f36698ff20e288323e067edb8502
ph2004-08-15d3t06.flac:a9bd0e3f77377b53b5c98317fce1a98d
ph2004-08-15d4t01.flac:22a27aa31511d7ee3cafdf565706e57b
ph2004-08-15d4t02.flac:f97903fd3aee301fc9159e9cafb6453d
ph2004-08-15d4t03.flac:f81e68ca530f9f30587c367071891984
ph2004-08-15d4t04.flac:22e88ceed059e5629f052c8a0d5d49b4
ph2004-08-15d4t05.flac:7afe09b8edcc6a74a8e933a30443822b
ph2004-08-15d4t06.flac:c70dfb2249f26fd6287475f0de306b41
ph2004-08-15d4t07.flac:1af8b92756de2fea472a1140f11a3a38
ph2004-08-15d4t08.flac:4ec8e1c653c7631710d9e24bfd3d350d

Comments
Add Comment
Other Sources (comments)
FOB Neumann ak40 > lc3 >... (0) Coventry "From the... (0) Neumann ak30 (omni) > lc3ka... (0) FOB Neumann km140 (ORTF) >... (0) Neumann km150 (ORTF) >... (0)
Date User Comment