Browse Collections Artists Sources   Search Dates

Add Show    List Management    Help


Phish 08/14/04
Newport State Airport, Coventry, VT
Comments Add Comment    Source Collectors    Add to Collection    Add to Want List    History
Source # 94158 Other Sources
Entered by Jason Sobel
Checksums all_ffp
Disc Counts 2 / 4
Media Size
Date Circulated
Date Added
08/21/2008
08/23/2008
Source Summary AKG 483 -> V3 -> AD2K -> DA-P1; DA-20mkII -> Audiophile 24/96 -> Wavelab 5.0 -> CD Wave -> FLAC(6); Taped by Kenny Watts; Transferred Chris Davis 
Source Information - Download Text | Download Zip
Phish
Newport State Airport
Coventry, VT
August 14, 2004

source:  AKG 483 -> V3 -> AD2K -> DA-P1
location:  right of SBD / stand @ 7'
recorded by:  Kenny Watts

transfer: dat (master) -> DA-20mkII -> AR coax -> Audiophile 24/96 -> Wavelab 5.0 -> CD Wave -> FLAC(6)
transfer: Chris Davis (08/21/08)

Disc 1:        (73:27)
Set 1:
01.  (15:40)   Walls of the Cave ->
02.  (12:26)   Runaway Jim ->
03.  (15:58)   Gotta Jiboo
04.  (19:02)   You Enjoy Myself ->
05.  (04:33)   Sample in a Jar
06.  (03:30)   Axilla
07.  (02:18)   Poor Heart


Disc 2:        (62:30)        
Set 1(cont):
01.  (13:31)   Run Like an Antelope*
02.  (08:22)   Fire

Set 2:
03.  (00:41)   crowd
04.  (20:08)   AC/DC Bag ->
05.  (03:54)   46 Days ->
06.  (08:46)   Halley's Comet ->
07.  (07:08)   Ya Mar


Disc 3:        (79:40)
Set 2(cont):
01.  (04:35)   Trey speaks
02.  (12:58)   David Bowie
03.  (09:24)   Character Zero

Set 3:
04.  (16:49)   Twist ->
05.  (05:43)   The Wedge
06.  (20:26)   Stash ->
07.  (09:45)   Free


Disc 4:        (70:46)
Set 3(cont):
01.  (02:42)   crowd
02.  (02:20)   Trey speaks
03.  (10:29)   Guyute
04.  (26:07)   Drowned ->
05.  (07:23)   Friday

Encore:
06.  (21:15)   Harry Hood
07.  (00:30)   outtro

*with Tom Marshall

    length     expanded size    cdr  WAVE problems  fmt   ratio  filename
    15:40.38      165905420 B   ---   --   ---xx   flac  0.5508  ph2004-08-14d1t01.flac
    12:26.61      131737916 B   ---   --   ---xx   flac  0.5217  ph2004-08-14d1t02.flac
    15:58.74      169165292 B   ---   --   ---xx   flac  0.5230  ph2004-08-14d1t03.flac
    19:02.24      201505292 B   ---   --   ---xx   flac  0.4993  ph2004-08-14d1t04.flac
     4:33.04       48166652 B   ---   --   ---xx   flac  0.5592  ph2004-08-14d1t05.flac
     3:30.53       37168700 B   ---   --   ---xx   flac  0.5635  ph2004-08-14d1t06.flac
     2:18.62       24489068 B   ---   --   ---xx   flac  0.5257  ph2004-08-14d1t07.flac
    13:31.36      143145116 B   ---   --   ---xx   flac  0.5374  ph2004-08-14d2t01.flac
     8:22.63       88701020 B   ---   --   ---xx   flac  0.5599  ph2004-08-14d2t02.flac
     0:41.00        7232444 B   ---   --   ---xx   flac  0.3779  ph2004-08-14d2t03.flac
    20:08.45      213197084 B   ---   --   ---xx   flac  0.5465  ph2004-08-14d2t04.flac
     3:54.22       41329388 B   ---   --   ---xx   flac  0.5521  ph2004-08-14d2t05.flac
     8:46.26       92847596 B   ---   --   ---xx   flac  0.5168  ph2004-08-14d2t06.flac
     7:08.09       75520412 B   ---   --   ---xx   flac  0.5125  ph2004-08-14d2t07.flac
     4:35.29       48578252 B   ---   --   ---xx   flac  0.4114  ph2004-08-14d3t01.flac
    12:58.16      137276876 B   ---   --   ---xx   flac  0.5397  ph2004-08-14d3t02.flac
     9:24.55       99619004 B   ---   --   ---xx   flac  0.5840  ph2004-08-14d3t03.flac
    16:49.33      178065260 B   ---   --   ---xx   flac  0.5151  ph2004-08-14d3t04.flac
     5:43.15       60540524 B   ---   --   ---xx   flac  0.5310  ph2004-08-14d3t05.flac
    20:26.65      216419324 B   ---   --   ---xx   flac  0.5195  ph2004-08-14d3t06.flac
     9:45.31      103266956 B   ---   --   ---xx   flac  0.5119  ph2004-08-14d3t07.flac
     2:42.56       28708556 B   ---   --   ---xx   flac  0.3627  ph2004-08-14d4t01.flac
     2:20.63       24844220 B   ---   --   ---xx   flac  0.3796  ph2004-08-14d4t02.flac
    10:29.66      111110876 B   ---   --   ---xx   flac  0.5284  ph2004-08-14d4t03.flac
    26:07.40      276512924 B   ---   --   ---xx   flac  0.5232  ph2004-08-14d4t04.flac
     7:23.46       78253436 B   ---   --   ---xx   flac  0.4993  ph2004-08-14d4t05.flac
    21:15.22      224961788 B   ---   --   ---xx   flac  0.4834  ph2004-08-14d4t06.flac
     0:30.53        5416700 B   ---   --   ---xx   flac  0.3999  ph2004-08-14d4t07.flac
   286:37.57     3033686096 B                            0.5208  (28 files)
Show Checksums
all_ffp
ph2004-08-14d1t01.flac:5c9b240ecac5512da817644b5d8db440
ph2004-08-14d1t02.flac:598049b548b3e5e3cbd8680186a4ce14
ph2004-08-14d1t03.flac:34d1e19c1742c082761b0de13c59272b
ph2004-08-14d1t04.flac:c149c248f941d26a7e483f9bde06a134
ph2004-08-14d1t05.flac:f277c86e69cc06a055c607f7bfc782f9
ph2004-08-14d1t06.flac:ccc4520ef44c161cc8aa85d66388f200
ph2004-08-14d1t07.flac:f8d7f393e7e637fa15635b232d1cbfb6
ph2004-08-14d2t01.flac:8613d6f066309eae262e24a322424661
ph2004-08-14d2t02.flac:34951fa2ead0b46c5a62b76c2e0a82f4
ph2004-08-14d2t03.flac:2da81f28ffe95b863c58e25eb325415e
ph2004-08-14d2t04.flac:ca9d8e1e09e349ede1aec8edb427e1d8
ph2004-08-14d2t05.flac:a621bac7dfc668a8d50b58dc630a9062
ph2004-08-14d2t06.flac:296d3bb8013282a82d1a74260164c31f
ph2004-08-14d2t07.flac:e7b0e9afb40eb61cbaed14cfc09dc020
ph2004-08-14d3t01.flac:7c697109f91235cfb65c3ca1c485e345
ph2004-08-14d3t02.flac:5f79c4abdd483b93e3508ab5d78066ba
ph2004-08-14d3t03.flac:ad1ac86a91a40b4bc360a217b14984b3
ph2004-08-14d3t04.flac:57616726d297bd0100d5848996e7bc43
ph2004-08-14d3t05.flac:5162a264d9345fe534170637e496f831
ph2004-08-14d3t06.flac:656178a7592da5aa4770f69a2b5e6976
ph2004-08-14d3t07.flac:01296d7cdb3bb55cea632b03cc53787a
ph2004-08-14d4t01.flac:1553fb4bf905caea6e9f4c1ee463f019
ph2004-08-14d4t02.flac:da45c98b64c1000e8f14fc39e523dd3d
ph2004-08-14d4t03.flac:ec0baaa0b152ca77f8296a4e6cb98eb0
ph2004-08-14d4t04.flac:383f6d3730bf0e6da19cc8c2bbe585d1
ph2004-08-14d4t05.flac:c729f8f8c8ec08fecd000f06cbebeda0
ph2004-08-14d4t06.flac:0b68b3b1c3dc174cabc89962ba716420
ph2004-08-14d4t07.flac:3370e30f663f45b26c3e1425614d577e

Comments
Add Comment
Other Sources (comments)
LivePhish FLAC download;... (0) FOB Neumann km140 (ORTF) >... (0) Coventry "From the... (0) Microtech Gefell m210 (DIN)... (0) Neumann km150 (ORTF) >... (0) (FOB) Schoeps mk4 > kc5 >... (0)
Date User Comment