Browse Collections Artists Sources   Search Dates

Add Show    List Management    Help


Grateful Dead 10/04/87
Shoreline Amphitheatre, Mountain View, CA
Comments Add Comment    Source Collectors    Add to Collection    Add to Want List    History
Source # 94185 Other Sources
Entered by Matt Vernon
Checksums flac-md5 , ffp , st5
Disc Counts 2 / 2
Media Size
Date Circulated
Date Added
08/26/2008
08/25/2008
Source Summary flac16; 1st gen Sennheiser 441's w/D5 OTS MAC>1st gen>D6>HD>Audacity>CDWave>TLH 
  Archive
Source Information - Download Text | Download Zip
Grateful Dead on Sunday October 4th,1987
Shoreline Amphitheatre
Mountain View,California,USA

Sennheiser 441's with Sony D5
Offical taping section
Maxell XL II 90 No nr

Master>1st gen>D6>HD>Audacity>CDWave>TLH

Recorded by Unknown, transfered by Russ Cansler
tape from the collection of Russ Cansler

CD 1  Set 1
01) tuning [01:38]
02) Jackstraw [06:04]
03) When Push Comes To Shove [04:45]
04) Walkin Blues [07:54]
05) High Time [08:28]
06) Desolation Row [11:21] tape flip
07) Aiko-Aiko [05:21]
total  45:35

CD 2  Set 2
01) tuning [01:26]
02) Hell in a Bucket [06:16]
03) Devil in a Blue Dress [02:50]
04) Good Golly Miss Molly [00:40]
05) Devil in a Blue Dress [01:48]
06) Estimated Prophet [10:46]
07) Eyes of the World [06:08]
08) Drums [02:56]
09) Space [07:43] tape flip
10) Space [03:08]
11) I Need a Miracle [03:38]
12) Dear Mr. Fantasy [04:54]
13) Wharf Rat [08:12]
14) Not Fade Away [07:23]
   encore
15) Touch of Grey [06:20]
16) Brokedown Palace [05:30]
  total 79:45

Jerry Garcia-Guitar,Vocals
Bob Weir-Rhythm Guitar,Vocals
Phil Lesh-Bass Guitar
Billy Kreutzmann-Drums
Micky Hart-Percussion
Brent Mydland-Keyboards,Vocals
  
shntool 3.0.4
Copyright (C) 2000-2007 Jason Jordan

    length     expanded size    cdr  WAVE problems  fmt   ratio  filename
     1:38.60       17428364 B   ---   --   ---xx   flac  0.5567  gd1987.10.04.d1t01.flac
     6:04.19       64254332 B   ---   --   ---xx   flac  0.6411  gd1987.10.04.d1t02.flac
     4:45.21       50323436 B   ---   --   ---xx   flac  0.6430  gd1987.10.04.d1t03.flac
     7:54.05       83625404 B   ---   --   ---xx   flac  0.6266  gd1987.10.04.d1t04.flac
     8:28.66       89766476 B   ---   --   ---xx   flac  0.5867  gd1987.10.04.d1t05.flac
    11:21.34      120208412 B   ---   --   ---xx   flac  0.6447  gd1987.10.04.d1t06.flac
     5:21.12       56652668 B   ---   --   ---xx   flac  0.6870  gd1987.10.04.d1t07.flac
     1:26.30       15241004 B   ---   --   ---xx   flac  0.5873  gd1987.10.04.d2t01.flac
     6:16.03       66333500 B   ---   --   ---xx   flac  0.7039  gd1987.10.04.d2t02.flac
     2:50.41       30084476 B   ---   --   ---xx   flac  0.7035  gd1987.10.04.d2t03.flac
     0:40.05        7067804 B   ---   --   ---xx   flac  0.7072  gd1987.10.04.d2t04.flac
     1:48.44       19154732 B   ---   --   ---xx   flac  0.6855  gd1987.10.04.d2t05.flac
    10:46.03      113961500 B   ---   --   ---xx   flac  0.6740  gd1987.10.04.d2t06.flac
     6:08.66       65070476 B   ---   --   ---xx   flac  0.6694  gd1987.10.04.d2t07.flac
     2:56.33       31124060 B   ---   --   ---xx   flac  0.6463  gd1987.10.04.d2t08.flac
     7:43.25       81732044 B   ---   --   ---xx   flac  0.5771  gd1987.10.04.d2t09.flac
     3:08.02       33167948 B   ---   --   ---xx   flac  0.6254  gd1987.10.04.d2t10.flac
     3:38.49       38570492 B   ---   --   ---xx   flac  0.6907  gd1987.10.04.d2t11.flac
     4:54.30       51932204 B   ---   --   ---xx   flac  0.6927  gd1987.10.04.d2t12.flac
     8:12.09       86810012 B   ---   --   ---xx   flac  0.6533  gd1987.10.04.d2t13.flac
     7:23.34       78225212 B   ---   --   ---xx   flac  0.6868  gd1987.10.04.d2t14.flac
     6:20.25       67090844 B   ---   --   ---xx   flac  0.7022  gd1987.10.04.d2t15.flac
     5:30.39       58303772 B   ---   --   ---xx   flac  0.6477  gd1987.10.04.d2t16.flac
   125:17.55     1326129172 B                            0.6530  (23 files)
Show Checksums
flac-md5
a191ef846295daf67f385caa37c40e38 *gd1987.10.04.d1t01.flac
f1735af4c0b16e064404ed3721889d7f *gd1987.10.04.d1t02.flac
c6d0eade6489ef9821844413522d9a0b *gd1987.10.04.d1t03.flac
8eb712a1aaafa06eae7e93ea7f3124f4 *gd1987.10.04.d1t04.flac
de0210baac5e5340c6630ce16235fb45 *gd1987.10.04.d1t05.flac
6e10320fedcf7c47bc69934fcc0ef5be *gd1987.10.04.d1t06.flac
496946c4f2f635e0cf79f6f5c26170d9 *gd1987.10.04.d1t07.flac
b02d135a06d1bd1aaa953405e2494f4e *gd1987.10.04.d2t01.flac
28f35d6ec8e3ce15180924aa85f6ab66 *gd1987.10.04.d2t02.flac
a2db2ae69aee6791e6b2d89dfe83d4b9 *gd1987.10.04.d2t03.flac
d7bfe2389c9aa4dd4aee32341bd3b6fd *gd1987.10.04.d2t04.flac
ef834d05edc777c948a3de41c575e3bb *gd1987.10.04.d2t05.flac
e50b639ae8598f4175c9c6fa28985826 *gd1987.10.04.d2t06.flac
77a95d5e04b6800dabf46ecbe27abcda *gd1987.10.04.d2t07.flac
8f2ba7dad8139d89ae7084b711f8ce73 *gd1987.10.04.d2t08.flac
dbd9f8d3ce025718f163657f88043373 *gd1987.10.04.d2t09.flac
e3f17c601b5a079a2772afc61c8ed32a *gd1987.10.04.d2t10.flac
cd798feb72d07e8d0b5504a15ab689f3 *gd1987.10.04.d2t11.flac
595e87ff23a790806b33861462dd09d7 *gd1987.10.04.d2t12.flac
895462793e70039095ff8014fb95fda6 *gd1987.10.04.d2t13.flac
d67c88b243131e199dbbe560fbebfd43 *gd1987.10.04.d2t14.flac
59c138699f48d29259093d2e92535f49 *gd1987.10.04.d2t15.flac
948e4f7e22a2841eb4afb5ae92fe6447 *gd1987.10.04.d2t16.flac
ffp
gd1987.10.04.d1t01.flac:9485747554a5cbc8eaa976dea9883305
gd1987.10.04.d1t02.flac:f5bb69e5ef887eac16585da2f7eca3c2
gd1987.10.04.d1t03.flac:8765bd80e823f9bfaeabb319590add56
gd1987.10.04.d1t04.flac:765caec0c2f218e626082c3e2d6c373c
gd1987.10.04.d1t05.flac:71cf1a19d6c28ff512b884497d57b98b
gd1987.10.04.d1t06.flac:670c4cfba9d955d78a0bd2b794145f14
gd1987.10.04.d1t07.flac:ee53256bfc0601c9185dce61d7ed3e61
gd1987.10.04.d2t01.flac:832ae2b4c5dddd56964e9aca452e045a
gd1987.10.04.d2t02.flac:40e27a2a77d698aa1dd192eaf6546f3f
gd1987.10.04.d2t03.flac:b6a5d6b26892d6abab807b70130f0796
gd1987.10.04.d2t04.flac:af5a6d7fa91217a789e0550cfb95bb56
gd1987.10.04.d2t05.flac:9d4d5a9cf067736ae905f5af9c10fa49
gd1987.10.04.d2t06.flac:69b70a55e3fce94ed26f4476f2c1d6c2
gd1987.10.04.d2t07.flac:b52e42a090b0db649ed919926334ee23
gd1987.10.04.d2t08.flac:a79b6c0a1daa22398aaeb6797641502f
gd1987.10.04.d2t09.flac:891c2c1aa45ffed2ffbc00e0f83f0a1d
gd1987.10.04.d2t10.flac:d31710b1c06fba7827035d3aefa3d510
gd1987.10.04.d2t11.flac:7e45620da7c39680553352c2d608a8bb
gd1987.10.04.d2t12.flac:9e26e5ea728157ddc56fd833be912067
gd1987.10.04.d2t13.flac:c560ee41b033a933d558d5bc889d9df4
gd1987.10.04.d2t14.flac:86638dd85b2a400ba2fe7d3a5aef9ee9
gd1987.10.04.d2t15.flac:531083041852431cc11a8c0b911111b4
gd1987.10.04.d2t16.flac:6b09bb82fbb2125ada3183a12986a471
st5
9485747554a5cbc8eaa976dea9883305 [shntool] gd1987.10.04.d1t01.flac
f5bb69e5ef887eac16585da2f7eca3c2 [shntool] gd1987.10.04.d1t02.flac
8765bd80e823f9bfaeabb319590add56 [shntool] gd1987.10.04.d1t03.flac
765caec0c2f218e626082c3e2d6c373c [shntool] gd1987.10.04.d1t04.flac
71cf1a19d6c28ff512b884497d57b98b [shntool] gd1987.10.04.d1t05.flac
670c4cfba9d955d78a0bd2b794145f14 [shntool] gd1987.10.04.d1t06.flac
ee53256bfc0601c9185dce61d7ed3e61 [shntool] gd1987.10.04.d1t07.flac
832ae2b4c5dddd56964e9aca452e045a [shntool] gd1987.10.04.d2t01.flac
40e27a2a77d698aa1dd192eaf6546f3f [shntool] gd1987.10.04.d2t02.flac
b6a5d6b26892d6abab807b70130f0796 [shntool] gd1987.10.04.d2t03.flac
af5a6d7fa91217a789e0550cfb95bb56 [shntool] gd1987.10.04.d2t04.flac
9d4d5a9cf067736ae905f5af9c10fa49 [shntool] gd1987.10.04.d2t05.flac
69b70a55e3fce94ed26f4476f2c1d6c2 [shntool] gd1987.10.04.d2t06.flac
b52e42a090b0db649ed919926334ee23 [shntool] gd1987.10.04.d2t07.flac
a79b6c0a1daa22398aaeb6797641502f [shntool] gd1987.10.04.d2t08.flac
891c2c1aa45ffed2ffbc00e0f83f0a1d [shntool] gd1987.10.04.d2t09.flac
d31710b1c06fba7827035d3aefa3d510 [shntool] gd1987.10.04.d2t10.flac
7e45620da7c39680553352c2d608a8bb [shntool] gd1987.10.04.d2t11.flac
9e26e5ea728157ddc56fd833be912067 [shntool] gd1987.10.04.d2t12.flac
c560ee41b033a933d558d5bc889d9df4 [shntool] gd1987.10.04.d2t13.flac
86638dd85b2a400ba2fe7d3a5aef9ee9 [shntool] gd1987.10.04.d2t14.flac
531083041852431cc11a8c0b911111b4 [shntool] gd1987.10.04.d2t15.flac
6b09bb82fbb2125ada3183a12986a471 [shntool] gd1987.10.04.d2t16.flac

Comments
Add Comment
Other Sources (comments)
Master> DAT> CDr; via Mike Lai (2) Jay Ashley (Bertha)... (0) SBD> CM> DAT> CD> EAC> SHN... (0) flac16; Source:... (4) flac16; Recording... (0) flac16; Source:... (0) flac16; Recording... (0) flac16; Source Info:... (0)
Date User Comment