Browse Collections Artists Sources   Search Dates

Add Show    List Management    Help


Grateful Dead 09/16/93
Madison Square Garden, New York, NY
Comments Add Comment    Source Collectors    Add to Collection    Add to Want List    History
Source # 94226 Other Sources
Entered by Gary Field
Checksums ffp , flac-md5
Disc Counts 2 / 3
Media Size
Date Circulated
Date Added
08/27/2008
08/27/2008
Source Summary flac16; Recording Info:Set 1: SBD -> Dat -> Master Cassette -> Dat -> CD; Set 2: SBD -> Dat (48k); All Transfers and Mastering By Charlie Miller 
  Archive
Source Information - Download Text | Download Zip
Grateful Dead - September 16, 1993
Madison Square Garden - New York, NY

Recording Info:
Set 1: SBD -> Dat -> Master Cassette -> Dat -> CD
Set 2: SBD -> Dat (48k)

Transfer Info:
Set 1: CD -> Samplitude Professional v10.1 -> FLAC
Set 2: Dat (Sony R500) -> Sound Devices 744T -> Samplitude Professional v10.1 -> FLAC
(3 Discs Audio / 2 Discs FLAC)

All Transfers and Mastering By Charlie Miller
[email protected]
August 27, 2008

Notes:
-- Set 2 is seamless

Set 1:
d1t01 - Rain
d1t02 - Shakedown Street ->
d1t03 - Wang Dang Doodle
d1t04 - Cold Rain And Snow
d1t05 - Queen Jane Approximately
d1t06 - Althea
d1t07 - Eternity
d1t08 - Don't Ease Me In

Set 2:
d2t01 - Tuning
d2t02 - China Cat Sunflower ->
d2t03 - I Know You Rider
d2t04 - Estimated Prophet ->
d2t05 - Eyes Of The World ->
d2t06 - Drums ->
d2t07 - Space ->
d3t01 - Way To Go Home ->
d3t02 - Days Between ->
d3t03 - Throwing Stones ->
d3t04 - Not Fade Away

Encore:
d3t05 - Liberty


SHNTOOL OUTPUT:
    length     expanded size   cdr  WAVE problems filename
     4:50.38       51245420    ---   --   -----   gd93-09-16d1t01.wav
    12:42.33      134494460    ---   --   -----   gd93-09-16d1t02.wav
     6:23.26       67622396    ---   --   -----   gd93-09-16d1t03.wav
     7:46.09       82223612    ---   --   -----   gd93-09-16d1t04.wav
     6:06.00       64562444    ---   --   -----   gd93-09-16d1t05.wav
     8:30.51       90083996    ---   --   -----   gd93-09-16d1t06.wav
     8:56.40       94644524    ---   --   -----   gd93-09-16d1t07.wav
     3:14.41       34318076    ---   --   -----   gd93-09-16d1t08.wav
     1:13.43       12978380    ---   --   -----   gd93-09-16d2t01.wav
     6:17.66       66658076    ---   --   -----   gd93-09-16d2t02.wav
     5:33.15       58776524    ---   --   -----   gd93-09-16d2t03.wav
    12:21.14      130745372    ---   --   -----   gd93-09-16d2t04.wav
    10:20.30      109438604    ---   --   -----   gd93-09-16d2t05.wav
    12:59.22      137467388    ---   --   -----   gd93-09-16d2t06.wav
    13:54.10      147141164    ---   --   -----   gd93-09-16d2t07.wav
     6:28.31       68516156    ---   --   -----   gd93-09-16d3t01.wav
     9:52.69      104591132    ---   --   -----   gd93-09-16d3t02.wav
     9:18.31       98504156    ---   --   -----   gd93-09-16d3t03.wav
     8:42.05       92092604    ---   --   -----   gd93-09-16d3t04.wav
     7:08.03       75506300    ---   --   -----   gd93-09-16d3t05.wav
   162:39.52     1721610784 B                     (totals for 20 files)
Show Checksums
ffp
gd93-09-16d1t01.flac:0672815838e0c5f61ca8cf6952c6ca38
gd93-09-16d1t02.flac:748ecc6a87f9c3ba2f1f54dac9a1a377
gd93-09-16d1t03.flac:b65721d84f7413b6c2207c608087522f
gd93-09-16d1t04.flac:189313fbecd11ad79cfe40bf39ff5c02
gd93-09-16d1t05.flac:a7e6ce8225ff42c3c80c9836fb0fd5a0
gd93-09-16d1t06.flac:cacc515a745a5225ebcfa160f1b17353
gd93-09-16d1t07.flac:fa62c0bf7a46ec1b7b79a20968c2acc8
gd93-09-16d1t08.flac:af0f35d4744ba063391a14867be0ca07
gd93-09-16d2t01.flac:46f19a7bc8406420349e61a647ed1bd7
gd93-09-16d2t02.flac:426239593b7c1594359ed68c1a04dbf1
gd93-09-16d2t03.flac:2ad44cc2f0b71cb2fa611390452eedd2
gd93-09-16d2t04.flac:13a95d2eee44bc376f92512834294791
gd93-09-16d2t05.flac:40f3c6c39f8fc7779ec42e2c66745cb1
gd93-09-16d2t06.flac:d7685972460edaaa39666676e42203a8
gd93-09-16d2t07.flac:626eb585f6b9582dbf6a40ac0d62bebb
gd93-09-16d3t01.flac:b68d0f0206ccf9f17dbcd985c9e8615e
gd93-09-16d3t02.flac:5ff7176f8f687f00d3b64bc35e3356e5
gd93-09-16d3t03.flac:e0cf4acc719629b3b75a25b626d06c4d
gd93-09-16d3t04.flac:59a9d35cad593af415ab8131de3da20a
gd93-09-16d3t05.flac:c2191cf8b37afa85aa725be717604cbd
flac-md5
f9da956a09aa6c52fb5bca2d792f232d *gd93-09-16d1t01.flac
de8be2a1d63a57f763520acd16d4984d *gd93-09-16d1t02.flac
9e4e84d6cafaa67b6cc5361cac586d62 *gd93-09-16d1t03.flac
053717a5c9396ef4a0226cea3ef5804f *gd93-09-16d1t04.flac
328f566bae061a150b50a9d81a625e17 *gd93-09-16d1t05.flac
a796ac4cd97c95b821ce7d3412d3c6aa *gd93-09-16d1t06.flac
b02d563c49a3fe8f7ac02f06f6d5de32 *gd93-09-16d1t07.flac
c47c18d9689b9b1e729f09d9717de62c *gd93-09-16d1t08.flac
64e21b6a9a262a490125e80524ddd3f7 *gd93-09-16d2t01.flac
906afbce3c06ea08cb2b51ec2adbd42c *gd93-09-16d2t02.flac
c94b3e68fcb1dd02a044a6a82823b5fd *gd93-09-16d2t03.flac
2a9b73458a9bccb1f89a41a18b43a6f0 *gd93-09-16d2t04.flac
af356b9032d60c2a70ff6dbde61a3882 *gd93-09-16d2t05.flac
3cf6bce60d8d35d1778e57dfefd30f55 *gd93-09-16d2t06.flac
f25f21d568ad3ac4fa99635a9c6094a6 *gd93-09-16d2t07.flac
fc9b1156e68f8c472ff47540500c1093 *gd93-09-16d3t01.flac
281d23ff9f4ac28ebff09fea0f089d40 *gd93-09-16d3t02.flac
06d27e363de3cab8f7f4177e7ada0903 *gd93-09-16d3t03.flac
dc510fe5e34c19e197c2d41f8283fcc0 *gd93-09-16d3t04.flac
4fd9d3483e63291c02617b35038bd595 *gd93-09-16d3t05.flac

Comments
Add Comment
Other Sources (comments)
FOB/DFC Sec. 2 - Row R -... (0) DAUD/FOB Schoeps... (0) SBD DAT> C> DAT> WAV> CE>... (0) flac16 ; AUD:... (0) flac16/48kHz;... (0) flac16/48kHz;... (0) flac16; Recording... (1)
Date User Comment