Browse Collections Artists Sources   Search Dates

Add Show    List Management    Help


Grateful Dead 09/18/93
Madison Square Garden, New York, NY
Comments Add Comment    Source Collectors    Add to Collection    Add to Want List    History
Source # 94229 Other Sources
Entered by Gary Field
Checksums ffp , flac-md5
Disc Counts 2 / 3
Media Size
Date Circulated
Date Added
08/28/2008
08/27/2008
Source Summary flac16; Recording Info:SBD -> Master Dat (48k); Transfer Info: Master Dat (Sony R500) -> Sound Devices 744T -> Samplitude Professional v10.1 -> FLAC All Transfers and Mastering By Charlie Miller 
  Archive
Source Information - Download Text | Download Zip
Grateful Dead - September 18, 1993
Madison Square Garden - New York, NY

Recording Info:
SBD -> Master Dat (48k)

Transfer Info:
Master Dat (Sony R500) -> Sound Devices 744T -> Samplitude Professional v10.1 -> FLAC
(3 Discs Audio / 2 Discs FLAC)

All Transfers and Mastering By Charlie Miller
[email protected]
August 27, 2008

Notes:
-- Set 2 is seamless

Set 1:
d1t01 - Tuning
d1t02 - Mississippi Half-Step Uptown Toodeloo ->
d1t03 - Little Red Rooster
d1t04 - Althea
d1t05 - When I Paint My Masterpiece
d1t06 - Brown Eyed Women
d1t07 - Cassidy
d1t08 - Loose Lucy

Set 2:
d2t01 - Tuning
d2t02 - Iko Iko
d2t03 - Victim Or The Crime ->
d2t04 - Uncle John's Band ->
d2t05 - Corrina ->
d2t06 - Drums ->
d3t01 - Space ->
d3t02 - The Wheel ->
d3t03 - All Along The Watchtower ->
d3t04 - China Doll ->
d3t05 - One More Saturday Night

Encore:
d3t06 - Gloria


SHNTOOL OUTPUT:
    length     expanded size   cdr  WAVE problems filename
     1:32.72       16398188    ---   --   -----   gd93-09-18d1t01.wav
     8:26.34       89338412    ---   --   -----   gd93-09-18d1t02.wav
     9:25.26       99727196    ---   --   -----   gd93-09-18d1t03.wav
     6:58.26       73796396    ---   --   -----   gd93-09-18d1t04.wav
     6:42.19       70957532    ---   --   -----   gd93-09-18d1t05.wav
     5:50.02       61744748    ---   --   -----   gd93-09-18d1t06.wav
     7:45.13       82056620    ---   --   -----   gd93-09-18d1t07.wav
     6:55.45       73311884    ---   --   -----   gd93-09-18d1t08.wav
     1:15.17       13270028    ---   --   -----   gd93-09-18d2t01.wav
     9:52.07      104445308    ---   --   -----   gd93-09-18d2t02.wav
     9:19.06       98621756    ---   --   -----   gd93-09-18d2t03.wav
     8:54.36       94282316    ---   --   -----   gd93-09-18d2t04.wav
    10:58.34      116151212    ---   --   -----   gd93-09-18d2t05.wav
    13:59.20      148046684    ---   --   -----   gd93-09-18d2t06.wav
    12:32.52      132775148    ---   --   -----   gd93-09-18d3t01.wav
     5:02.49       53388092    ---   --   -----   gd93-09-18d3t02.wav
     5:21.66       56779676    ---   --   -----   gd93-09-18d3t03.wav
     6:16.65       66479324    ---   --   -----   gd93-09-18d3t04.wav
     7:06.37       75233468    ---   --   -----   gd93-09-18d3t05.wav
     6:17.74       66676892    ---   --   -----   gd93-09-18d3t06.wav
   150:33.25     1593480880 B                     (totals for 20 files)
Show Checksums
ffp
gd93-09-18d1t01.flac:98cf42a8377b8598a39a77be78625f49
gd93-09-18d1t02.flac:287e16a8c8e6200500b02904fb05c270
gd93-09-18d1t03.flac:490dc7830e59f5d5d3d281330f4ece1b
gd93-09-18d1t04.flac:02666b9052fdee9a989cdd4cd68a5384
gd93-09-18d1t05.flac:005916bf7690e39008e1a44150de354b
gd93-09-18d1t06.flac:54fe9dfc279bcf1a69bd6a77fc1dc4c5
gd93-09-18d1t07.flac:a9b965bf09671c0374e5a409c946628f
gd93-09-18d1t08.flac:853b00e0d0373dfbae434d11bf82fca8
gd93-09-18d2t01.flac:08310ebe6081d9835db583879360a92e
gd93-09-18d2t02.flac:31166cd4c77c2a1794b51113ba0c57b7
gd93-09-18d2t03.flac:9fbd12aeabc1ddc27ef6b2c3bba21798
gd93-09-18d2t04.flac:4bfc4d7c48b19d3f5e23748feef15d28
gd93-09-18d2t05.flac:276472ee03449050998c67d73bd28648
gd93-09-18d2t06.flac:7508ab8b4dbc84c0fd85f5767b6df3bb
gd93-09-18d3t01.flac:c8231a5fb0fcdaa24ef0672f19c775b6
gd93-09-18d3t02.flac:231e40ddde8a0cb481faadb6a03cf27e
gd93-09-18d3t03.flac:7a7dfe57c84ef3b79137284523d0a29d
gd93-09-18d3t04.flac:f9279f0e751fcb39c17af7cf71a47669
gd93-09-18d3t05.flac:bac9b2c01512239c2eac674239ae38de
gd93-09-18d3t06.flac:0f48f83cf1f93543c580a164cdddded0
flac-md5
f798c69cce4ba0b925db43a11bb20df5 *gd93-09-18d1t01.flac
fd3ec8688df971e4bf2900f7f4e135b9 *gd93-09-18d1t02.flac
c4dc29784ddb55c424ad00232870e1b0 *gd93-09-18d1t03.flac
4a81330b8cb39097001f4ff1b50129df *gd93-09-18d1t04.flac
b87b090044d69e3cf02a5350cb119f38 *gd93-09-18d1t05.flac
27dd5cffde849d527f29a1c46b51324e *gd93-09-18d1t06.flac
c8ed4fd7e85246bcf8e85cc27934ff17 *gd93-09-18d1t07.flac
d65f8db12b0c332566b02a34ac43e5ea *gd93-09-18d1t08.flac
7a602246269335ce813d1734a1eb5750 *gd93-09-18d2t01.flac
62fb11995e8abc8c1cecca35e789e18a *gd93-09-18d2t02.flac
06c4064772362ea17489b02e46e9f303 *gd93-09-18d2t03.flac
2c9e621388d3a08e717704fd3d133d4d *gd93-09-18d2t04.flac
59c1c18f940462b2a9530be369566934 *gd93-09-18d2t05.flac
91cd013b2d0deb53db34756c07c1537b *gd93-09-18d2t06.flac
af44f08cf993f555791ccc58bb590d44 *gd93-09-18d3t01.flac
444e93f9a7797f4280e5b21dfa9803ee *gd93-09-18d3t02.flac
38a5cbd9d64ea9f9b7c40e8a71c24cd3 *gd93-09-18d3t03.flac
b73be1fdcb3d0ea6cfa8af1b5040947e *gd93-09-18d3t04.flac
fafd5d459c3230f04b88e8e6176581ed *gd93-09-18d3t05.flac
84b7ed43ea27eb8147d1c047f7815215 *gd93-09-18d3t06.flac

Comments
Add Comment
Other Sources (comments)
FOB/DFC Sec. 2 - Row R -... (0) SBD DAT> C> DAT> WAV> CE>... (0) flac16; Set 1, AUD:... (0) flac16/48kHz;... (0)
Date User Comment