Browse Collections Artists Sources   Search Dates

Add Show    List Management    Help


Ratdog 08/27/08
DTE Energy Music Theatre, Clarkston, MI
Comments Add Comment    Source Collectors    Add to Collection    Add to Want List    History
Source # 94263 Other Sources
Entered by ziko
Checksums ffp
Disc Counts 1 / 2
Media Size
Date Circulated
Date Added

08/30/2008
Source Summary flac16;Source: Schoeps CCM4V'S(din)>Lunatec V2>Sound Devices 722 (24/48); location: BOB/DLFC/KFC/ZFC/AARP Row HH, Between Seats 31 and 32, 6 1/2' High; DSP: Sound Devices 722>Sound Forge 7.0>CD Wave>flac(16); Recorded By: The Z-Man 
Source Information - Download Text | Download Zip
Ratdog
DTE Energy Music Theatre
Clarkston, Michigan
8/27/2008

Source: Schoeps CCM4V'S(din)>Lunatec V2>Sound Devices 722 (24/48)
location: BOB/DLFC/KFC/ZFC/AARP Row HH, Between Seats 31 and 32, 6 1/2' High
DSP: Sound Devices 722>Sound Forge 7.0>CD Wave>flac(16)
Recorded By: The Z-Man
Seeded By: The Z-Man

Disc I

01 Banter Vote for Bob Weir
02 Jam >
03 The Music Never Stopped >
04 New Minglewood Blues >
05 It's All Over Now Baby Blue
06 ? >
07 Tomorrow Never Knows
08 *Dark Hollow

Disc II

01 *Black-Throated Wind >
02 *Lost Sailor >
03 St. of Circumstance >
04 Jam >
05 Black Peter >
06 Goin' Down the Road Feelin' Bad
Encore:
07 Ripple

* With Bob Weir on Acoustic Guitar

ratdog2008-08-27d01t01.flac:416729b086f5cb979b60539beac2525a
ratdog2008-08-27d01t02.flac:d659c33d1393f2e8c18bfbf366a52ca6
ratdog2008-08-27d01t03.flac:744a2e39a6000f9ac76fc3d5ae2ce14e
ratdog2008-08-27d01t04.flac:089c85bd739989a92eb90a18b786982d
ratdog2008-08-27d01t05.flac:fd2aef8f9edece44fec7bfa67d1c053c
ratdog2008-08-27d01t06.flac:532505ce3ffafd22259f005a9a843840
ratdog2008-08-27d01t07.flac:f8fc2f5db270fd91dfb9f3c94cbe1ea9
ratdog2008-08-27d01t08.flac:eca9641266f82ae02f02088d6adae582
ratdog2008-08-27d02t01.flac:6782c63fef6a696cb37ba81a90d90f7c
ratdog2008-08-27d02t02.flac:eeddb84de2b84e0a42ccfdd2c1bbfb59
ratdog2008-08-27d02t03.flac:8a51696b5f010303b33b97b2808f5b24
ratdog2008-08-27d02t04.flac:0acf8806d8587e1e261fcb68e7850ccb
ratdog2008-08-27d02t05.flac:3b7b5857a0cec00ab8aa065ac8646620
ratdog2008-08-27d02t06.flac:2ac6aac94ce90eaece65329fa457916d
ratdog2008-08-27d02t07.flac:76095bb5d402e5f5b20204e1c58af034

shntool 3.0.4
Copyright (C) 2000-2007 Jason Jordan

    length     expanded size    cdr  WAVE problems  fmt   ratio  filename
     0:59.24       10464092 B   ---   --   ---xx   flac  0.3511  ratdog2008-08-27d01t01.flac
     4:49.39       51071372 B   ---   --   ---xx   flac  0.5245  ratdog2008-08-27d01t02.flac
    11:22.50      120422444 B   ---   --   ---xx   flac  0.5487  ratdog2008-08-27d01t03.flac
     9:35.70      101594684 B   ---   --   ---xx   flac  0.5382  ratdog2008-08-27d01t04.flac
     9:13.47       97659788 B   ---   --   ---xx   flac  0.4966  ratdog2008-08-27d01t05.flac
    13:14.31      140134556 B   ---   --   ---xx   flac  0.4995  ratdog2008-08-27d01t06.flac
     7:09.33       75753260 B   ---   --   ---xx   flac  0.5276  ratdog2008-08-27d01t07.flac
     6:18.00       66679244 B   ---   --   ---xx   flac  0.4870  ratdog2008-08-27d01t08.flac
     8:07.38       85996220 B   ---   --   ---xx   flac  0.5205  ratdog2008-08-27d02t01.flac
     9:18.59       98570012 B   ---   --   ---xx   flac  0.5010  ratdog2008-08-27d02t02.flac
     8:42.49       92196092 B   ---   --   ---xx   flac  0.5295  ratdog2008-08-27d02t03.flac
     7:31.53       79681100 B   ---   --   ---xx   flac  0.4755  ratdog2008-08-27d02t04.flac
    13:08.60      139144364 B   ---   --   ---xx   flac  0.5008  ratdog2008-08-27d02t05.flac
     6:40.45       70665884 B   ---   --   ---xx   flac  0.5525  ratdog2008-08-27d02t06.flac
     5:23.38       57066620 B   ---   --   ---xx   flac  0.4592  ratdog2008-08-27d02t07.flac
   121:36.36     1287099732 B                            0.5112  (15 files)

Show Checksums
ffp
ratdog2008-08-27d01t01.flac:416729b086f5cb979b60539beac2525a
ratdog2008-08-27d01t02.flac:d659c33d1393f2e8c18bfbf366a52ca6
ratdog2008-08-27d01t03.flac:744a2e39a6000f9ac76fc3d5ae2ce14e
ratdog2008-08-27d01t04.flac:089c85bd739989a92eb90a18b786982d
ratdog2008-08-27d01t05.flac:fd2aef8f9edece44fec7bfa67d1c053c
ratdog2008-08-27d01t06.flac:532505ce3ffafd22259f005a9a843840
ratdog2008-08-27d01t07.flac:f8fc2f5db270fd91dfb9f3c94cbe1ea9
ratdog2008-08-27d01t08.flac:eca9641266f82ae02f02088d6adae582
ratdog2008-08-27d02t01.flac:6782c63fef6a696cb37ba81a90d90f7c
ratdog2008-08-27d02t02.flac:eeddb84de2b84e0a42ccfdd2c1bbfb59
ratdog2008-08-27d02t03.flac:8a51696b5f010303b33b97b2808f5b24
ratdog2008-08-27d02t04.flac:0acf8806d8587e1e261fcb68e7850ccb
ratdog2008-08-27d02t05.flac:3b7b5857a0cec00ab8aa065ac8646620
ratdog2008-08-27d02t06.flac:2ac6aac94ce90eaece65329fa457916d
ratdog2008-08-27d02t07.flac:76095bb5d402e5f5b20204e1c58af034

Comments
Add Comment
Date User Comment