Browse Collections Artists Sources   Search Dates

Add Show    List Management    Help


Grateful Dead 12/28/79
Oakland Auditorium Arena, Oakland, CA
Comments Add Comment    Source Collectors    Add to Collection    Add to Want List    History
Source # 94267 Other Sources
Entered by Matt Vernon
Checksums ffp , flac-md5
Disc Counts 2 / 2
Media Size
Date Circulated
Date Added
08/31/2008
08/30/2008
Source Summary flac16; Matrix by Hunter Seamons using Final Cut Pro (SHN & FLAC>AIFF>Final Cut>WAV>FLAC)  
  Archive
Source Information - Download Text | Download Zip
Grateful Dead
Oakland Auditorium Arena
Oakland, CA
December 28, 1979

Jerry Garcia - Lead Guitar, Vocals
Mickey Hart - Drums
Bill Kreutzmann - Drums
Phil Lesh - Electric Bass, Vocals
Brent Mydland - Keyboards, Vocals
Bob Weir - Rhythm Guitar, Vocals


*Matrix*

----------------------------------------------------
SBD:

Source:  SBD > MR > PCM > DAT > WAV > FLAC.   DAT provided by B.Koucky/B.Fried.
Transfer/mastering:  DAT (48 KHz) playback on Sony PCM-R500, AES digital output > Benchmark DAC1, XLR analog output > Grace Lunatec V3, sample rate at 96 KHz, AES digiout) > AES digital input, professional mode/sync - LynxTwo soundcard in E6400 dual core processor-based PC > HD as 24 bit/96 KHz WAV > Ozone 3.0 > MBIT+ dithering to 16/44.1 KHz WAV > CDWAV 1.9 (tracking) > FLAC (level 8).   Recording, editing and mastering with Wavelab 5.0.  All cables were Mogami Gold 0.3m pro-audio XLR cables.  All components in the transfer/mastering chain were powered from a Cyberpower 1285AVR noise-attenuated uninterruptible AC power supply.   Transferred and mastered by ChrisL.
Seeded by the Green Mountain Bros. at bt.etree.org, September 2007.

----------------------------------------------------
AUD:

Taper: Steve Rolfe 1st row balcony left side about a 1/4 to 1/3 back from the stage.
Source: nak 700's > d5 > DAT > cdr
Encoding: CDR > EAC(secure) > Cool Edit > CDWAV > mkwact > shn(seekable) by [email protected]

Thanks to Dave Minor for the cd's

Part of The Music Never Stopped Project 2003

-----------------------------------------------------
Thank you to Chris Ladner, Bill Koucky, and B. Fried for the SBD transfer;
to Steve Rolfe for recording the show;
to Matt Vernon for the AUD transfer;
and to Dave Minor for the CD's that beheld the AUD.

Matrix by Hunter Seamons using Final Cut Pro (SHN & FLAC>AIFF>Final Cut>WAV>FLAC)
August 30, 2008


Set I
-----
d1t01  Tuning
d1t02  Sugaree
d1t03  Mama Tried >
d1t04  Mexicali Blues
d1t05  Row Jimmy
d1t06  It's All Over Now
d1t07  High Time
d1t08  The Music Never Stopped

Set II
-----
d1t09  Tuning
d1t10  Alabama Getaway >
d1t11  Greatest Story Ever Told
d2t01  Terrapin Station >
d2t02  Playin' In The Band > Jam >
d2t03  Drums >
d2t04  Space >
d2t05  Uncle John's Band >
d2t06  I Need A Miracle >
d2t07  Bertha >
d2t08  Good Lovin'

Encore
------
d2t09  Casey Jones
d2t10  One More Saturday Night


Notes:

1) Fades were used to create a "seamless" (i.e. continuous) AUD track.

2) The transition between discs is seamless.

3) Show notes by Eric F. Wybenga, from his book, "Dead to the Core":

"This show opens with an all-time Sugaree and picks up from there. The second set is sick from start to end, starting with a very clearly sung and played Alabama>Greatest and a Terrapin>Playin' that's nothing short of phenomenal. Jerry's singing in the Terrapin is very sensitive, and the band jams it out fully before going into a Playin' of historic proportions, highlighted by Brent's lush, otherworldly synth runs. The post-Drums cascade is a series of momentum-building, flawless transitions between exciting versions of Uncle John's, Miracle, Bertha, and Good Lovin'. The Casey Jones encore, like the rest of the show, has that little bit more that kicks it into another realm. This one's hot, a must-have."


==========================================
40 FIVE-STAR SHOW REVIEWS AT THE ARCHIVES!
==========================================

    length     expanded size    cdr  WAVE problems  fmt   ratio  filename
     0:46.51        8234396 B   ---   --   ---xx  gd79-12-28d1t01.flac
    16:23.06      173415356 B   ---   --   ---xx  gd79-12-28d1t02.flac
     2:28.28       26173100 B   ---   --   ---xx  gd79-12-28d1t03.flac
     5:38.03       59630300 B   ---   --   ---xx  gd79-12-28d1t04.flac
    13:36.29      144010652 B   ---   --   ---xx  gd79-12-28d1t05.flac
     8:19.30       88094204 B   ---   --   ---xx  gd79-12-28d1t06.flac
     7:02.24       74497292 B   ---   --   ---xx  gd79-12-28d1t07.flac
     8:50.27       93555548 B   ---   --   ---xx  gd79-12-28d1t08.flac
     1:11.51       12644396 B   ---   --   ---xx  gd79-12-28d1t09.flac
     6:44.43       71366780 B   ---   --   ---xx  gd79-12-28d1t10.flac
     5:31.22       58440188 B   ---   --   ---xx  gd79-12-28d1t11.flac
    14:06.28      149300300 B   ---   --   ---xx  gd79-12-28d2t01.flac
    17:27.41      184787276 B   ---   --   ---xx  gd79-12-28d2t02.flac
     7:47.23       82432940 B   ---   --   ---xx  gd79-12-28d2t03.flac
     2:20.36       24780716 B   ---   --   ---xx  gd79-12-28d2t04.flac
     9:38.60      102100364 B   ---   --   ---xx  gd79-12-28d2t05.flac
     4:04.14       43074572 B   ---   --   ---xx  gd79-12-28d2t06.flac
     6:31.37       69059468 B   ---   --   ---xx  gd79-12-28d2t07.flac
     7:10.09       75873212 B   ---   --   ---xx  gd79-12-28d2t08.flac
     5:03.41       53545676 B   ---   --   ---xx  gd79-12-28d2t09.flac
     4:53.48       51798140 B   ---   --   ---xx  gd79-12-28d2t10.flac
   155:35.51     1646814876 B                            0.6062  (21 files)
Show Checksums
ffp
gd79-12-28d1t01.flac:5a4ebd0ef3b4e91228ebdeb7a199a53c
gd79-12-28d1t02.flac:4635cde2a69064b7934ac6fa342d3658
gd79-12-28d1t03.flac:cf327369cfd39f4a18a9bd676bb12e2c
gd79-12-28d1t04.flac:d7756744e587cb3a046f684f72fe51cd
gd79-12-28d1t05.flac:8c7b97d0e95d2ab5f21a075cecfe2761
gd79-12-28d1t06.flac:976ab478dc84648c34cd9ec6f3bc771c
gd79-12-28d1t07.flac:7617b3fe92b6610645f7fb5ebb89c812
gd79-12-28d1t08.flac:6bebe949d5d83d21873835584156e74c
gd79-12-28d1t09.flac:a5b5027dfd4193a1958c4f556a159ea7
gd79-12-28d1t10.flac:cce0858ad60004249e34fbeed8a472d5
gd79-12-28d1t11.flac:0e19e9b399f3dfdba275452410d7816d
gd79-12-28d2t01.flac:1b986c8df95faa820b3824b9f8573ae0
gd79-12-28d2t02.flac:c2ad90647d4d433f86315673cf27a3e7
gd79-12-28d2t03.flac:eb5746834227036f08185dce2f2c4e9a
gd79-12-28d2t04.flac:bbc567640fffa9361bc195b5f6e34c70
gd79-12-28d2t05.flac:dc0b1506a002226387c55c7bcf0965ef
gd79-12-28d2t06.flac:ea92d943aa2169022c43dad10f841d65
gd79-12-28d2t07.flac:15052b7fb657fd7bbb09f0d3e7c79475
gd79-12-28d2t08.flac:a8f6b83af27eca38a7ff2f79e2d9df1e
gd79-12-28d2t09.flac:5c30610a35458398f9a437bc74ce5f09
gd79-12-28d2t10.flac:197b8c3c29e2047ff09a05702dfae73b
flac-md5
562c990cb2a1eb7f75d852b72102ddc6 *gd79-12-28d1t01.flac
279adb41437d211b7db29cf94b21afd1 *gd79-12-28d1t02.flac
5548a41a5fa0a553c97fbcea77dac488 *gd79-12-28d1t03.flac
43d42614e70e5b7564d00b502b443b00 *gd79-12-28d1t04.flac
ef1a39d641e039333fb7f6904f9fdeaf *gd79-12-28d1t05.flac
186fb90d48413a27266463065ec82054 *gd79-12-28d1t06.flac
f84ec7471eebd68dd23060e5f85b7d4d *gd79-12-28d1t07.flac
93fa3ae3e8854e3ec8e3bd38d7238f83 *gd79-12-28d1t08.flac
4e3bd6104d5a863decec81bfdfa19e84 *gd79-12-28d1t09.flac
afe479cf883197bbd0311227e62d6f4a *gd79-12-28d1t10.flac
3755a0be4a2411255714e8ee18ccf99b *gd79-12-28d1t11.flac
2222d59dc27078b5e9879bf2a6083250 *gd79-12-28d2t01.flac
ff5e1974ed726b560bcc983cf439dcbb *gd79-12-28d2t02.flac
06c684d75ad2e4f9729636a16896b480 *gd79-12-28d2t03.flac
b6365f4aae7984a0f8f62f15afc9761d *gd79-12-28d2t04.flac
3fbcfc50570d7b8d58bdd5bc5039dd1e *gd79-12-28d2t05.flac
62f801891236273f334e59aadbf17279 *gd79-12-28d2t06.flac
b8e3559e4d3e6fcd094912ef4b6df766 *gd79-12-28d2t07.flac
6d951661bc181d47b6599059dc61411d *gd79-12-28d2t08.flac
841dcc19a4982e12ea49276f22e54762 *gd79-12-28d2t09.flac
ef14f4e9e28178cd4e28ce045b914368 *gd79-12-28d2t10.flac

Comments
Add Comment
Other Sources (comments)
SBD; transferred and seeded... (1) Recording by Steve Rolfe:... (0) sector boundary errors... (0) flac16; SBD > MR >... (1) flac16; Recording by... (0) flac16;Recording... (0) flac16; Recorded By... (0) flac16; Recording... (0) flac16; Recording... (0) flac16; Recording... (0)
Date User Comment