Browse Collections Artists Sources   Search Dates

Add Show    List Management    Help


Grateful Dead 10/26/80
Radio City Music Hall, New York, NY
Comments Add Comment    Source Collectors    Add to Collection    Add to Want List    History
Source # 94269 Other Sources
Entered by Matt Vernon
Checksums ffp , flac-md5
Disc Counts 2 / 3
Media Size
Date Circulated
Date Added
08/31/2008
08/31/2008
Source Summary flac16; Recording Info: Nakamichi 700 -> Master Cassette (Sony D5/Maxell UDXL-I & UDXL-II/Dolby B); Transfer Info: Master Cassette (Nakamichi DR-1/Dolby B) -> Sound Devices 744T (24bit/88.2k) -> Samplitude Professional v10.1 -> FLAC/16; Recorded By Steve Rolfe; All Transfers and Mastering By Charlie Miller 
  Archive
Source Information - Download Text | Download Zip
Grateful Dead - October 26, 1980
Radio City Music Hall - New York, NY

Recording Info:
Nakamichi 700 -> Master Cassette (Sony D5/Maxell UDXL-I & UDXL-II/Dolby B)

Transfer Info:
Master Cassette (Nakamichi DR-1/Dolby B) -> Sound Devices 744T (24bit/88.2k) ->
Samplitude Professional v10.1 -> FLAC/16
(3 Discs Audio / 2 Discs FLAC)

All Transfers and Mastering By Charlie Miller
[email protected]
August 30, 2008

Notes:
-- Seamless disc change between discs 2 and 3
-- Recorded front row balcony
-- Thanks to Steve Rolfe for lending me his masters

Set 1:
d1t01 - Iko Iko
d1t02 - Dark Hollow
d1t03 - It Must Have Been The Roses
d1t04 - On The Road Again
d1t05 - Jack-A-Roe
d1t06 - Cassidy
d1t07 - China Doll
d1t08 - Ripple

Set 2:
d2t01 - Tuning
d2t02 - Jack Straw ->
d2t03 - Sugaree ->
d2t04 - Little Red Rooster
d2t05 - Brown Eyed Women
d2t06 - Let It Grow ->
d2t07 - Don't Ease Me In

Set 3:
d2t08 - Tuning
d2t09 - Samson And Delilah
d2t10 - Althea
d3t01 - Estimated Prophet ->
d3t02 - He's Gone ->
d3t03 - Drums ->
d3t04 - Space ->
d3t05 - Not Fade Away ->
d3t06 - Stella Blue ->
d3t07 - Good Lovin'

Encore:
d3t08 - Brokedown Palace


SHNTOOL OUTPUT:
    length     expanded size   cdr  WAVE problems filename
     6:59.21       73961036    ---   --   -----   gd80-10-26d1t01.wav
     4:42.48       49857740    ---   --   -----   gd80-10-26d1t02.wav
     6:56.12       73410668    ---   --   -----   gd80-10-26d1t03.wav
     4:14.48       44918540    ---   --   -----   gd80-10-26d1t04.wav
     5:47.08       61229660    ---   --   -----   gd80-10-26d1t05.wav
     5:40.44       60079532    ---   --   -----   gd80-10-26d1t06.wav
     6:00.68       63663980    ---   --   -----   gd80-10-26d1t07.wav
     5:08.69       54493532    ---   --   -----   gd80-10-26d1t08.wav
     3:16.06       34588556    ---   --   -----   gd80-10-26d2t01.wav
     5:16.52       55864748    ---   --   -----   gd80-10-26d2t02.wav
     9:43.31      102914156    ---   --   -----   gd80-10-26d2t03.wav
     9:41.30      102559004    ---   --   -----   gd80-10-26d2t04.wav
     5:57.48       63087740    ---   --   -----   gd80-10-26d2t05.wav
     9:30.19      100592732    ---   --   -----   gd80-10-26d2t06.wav
     3:36.23       38156540    ---   --   -----   gd80-10-26d2t07.wav
     1:14.25       13112444    ---   --   -----   gd80-10-26d2t08.wav
     7:54.03       83620700    ---   --   -----   gd80-10-26d2t09.wav
     9:50.07      104092508    ---   --   -----   gd80-10-26d2t10.wav
    11:15.39      119161772    ---   --   -----   gd80-10-26d3t01.wav
    15:36.10      165133964    ---   --   -----   gd80-10-26d3t02.wav
    11:06.50      117600044    ---   --   -----   gd80-10-26d3t03.wav
     5:16.07       55758908    ---   --   -----   gd80-10-26d3t04.wav
     5:56.62       62944268    ---   --   -----   gd80-10-26d3t05.wav
    11:07.30      117729404    ---   --   -----   gd80-10-26d3t06.wav
     8:23.19       88773932    ---   --   -----   gd80-10-26d3t07.wav
     6:49.04       72157052    ---   --   -----   gd80-10-26d3t08.wav
   187:01.33     1979463160 B                     (totals for 26 files)
Show Checksums
ffp
gd80-10-26d1t01.flac:c0b4bbe33bbb33c21ad60458e5f0e1da
gd80-10-26d1t02.flac:a1df993ffd81cb08826c6b3424fa3ece
gd80-10-26d1t03.flac:0938ca3ec34692b8d0889f3d66491ad6
gd80-10-26d1t04.flac:6eb32ca4b95731179bcb115724baf39b
gd80-10-26d1t05.flac:3c9dc893d3ac484684aeee6b9fb3fbdb
gd80-10-26d1t06.flac:a89ee59d90c3d8e703a9573df762b82e
gd80-10-26d1t07.flac:a62372c86575874630441d72ea983589
gd80-10-26d1t08.flac:52f8be50c8dceee85b51891d2c4ea59f
gd80-10-26d2t01.flac:79c7911a1abf5067078998096a4a7144
gd80-10-26d2t02.flac:25b4f7f19b0505828afdfe8d55cbc7e7
gd80-10-26d2t03.flac:19a87cf32e32e4a58ba2bdb508c2aaa2
gd80-10-26d2t04.flac:2979a42c87d4566efe58e263aeac9273
gd80-10-26d2t05.flac:914ffbb2038b12e230641a70800c414f
gd80-10-26d2t06.flac:c65f0b78e4bcc7d87f53f3d621d17676
gd80-10-26d2t07.flac:83cc05c603acb71f6ff84a99301d2f30
gd80-10-26d2t08.flac:d30c3c9ebeb754c5e6c45a32f9919058
gd80-10-26d2t09.flac:e93f9e068d7f0003602d91c9b69f158d
gd80-10-26d2t10.flac:0309f1ce1e08dfcdd00a4a2bfff4a19e
gd80-10-26d3t01.flac:115b63ee19d86e105d145bfe5a3de1a9
gd80-10-26d3t02.flac:e49bfc78f3a0e5e4e4ede83362a3cee7
gd80-10-26d3t03.flac:2ce5d84188e2e65a48aaaf649c35c96e
gd80-10-26d3t04.flac:59af8d3a91fe26f0610475bb41994e66
gd80-10-26d3t05.flac:ad19d6cae85ba644441a70057d2cf440
gd80-10-26d3t06.flac:22a877a6a6745cbf9f08e67b2205e80b
gd80-10-26d3t07.flac:ac5737fcce79d76bc85bd71db11f0379
gd80-10-26d3t08.flac:d9ab5f05d11aaa76dbc7ded8781a0fdd
flac-md5
55aeea7c63fbc32c862a72d2f8f7d1e7 *gd80-10-26d1t01.flac
13e301e2e767978dc738d857c933a5c8 *gd80-10-26d1t02.flac
66ec4991f46306533e526d90bc0cf7be *gd80-10-26d1t03.flac
1c805e1a62e31922b48b01c020b82c90 *gd80-10-26d1t04.flac
949a2791afdc807a68544f9bd160aef4 *gd80-10-26d1t05.flac
1b88bd18747cd2eef24fadb4775594aa *gd80-10-26d1t06.flac
a061aadd720aba86317c0fb087437c5a *gd80-10-26d1t07.flac
ee14c921eab17c0bad4d32d0ae62ab3d *gd80-10-26d1t08.flac
7357d6ac7b47c2a17ba6c128a21ecc04 *gd80-10-26d2t01.flac
2d964898945ceb842b2587a3cfdc827d *gd80-10-26d2t02.flac
7ab6d919800a64822c767d31ba84b407 *gd80-10-26d2t03.flac
ec865d5102a80f0b4bdbfa2c5868ea3d *gd80-10-26d2t04.flac
79a3e56c288fcceeee2ce834eff475e3 *gd80-10-26d2t05.flac
5c304c7fa4915fd75d9e6e1cfe48e440 *gd80-10-26d2t06.flac
afd3177082cb458a493dc96014fc200d *gd80-10-26d2t07.flac
c83a8ff24af05539992d871aa69dfe11 *gd80-10-26d2t08.flac
5fea0e23037b358cda5502177e687618 *gd80-10-26d2t09.flac
8c7522e1e3e589d86b8050b195dbc6a3 *gd80-10-26d2t10.flac
dcb83ee602f88348001ca7c91dd79b10 *gd80-10-26d3t01.flac
e3d8ccef52b4f755c0512213a0a91bfd *gd80-10-26d3t02.flac
fcc548d99b4bc74671d03f9982789d17 *gd80-10-26d3t03.flac
0c55bbe843e5a773ec78da5a84c63666 *gd80-10-26d3t04.flac
11bb077e556912fabe5dabd3a7378095 *gd80-10-26d3t05.flac
34dea7cc091ac4e80d736d702ab34a20 *gd80-10-26d3t06.flac
ae3832b26a45383630fbd4f66ae5e896 *gd80-10-26d3t07.flac
3b3c07cf05e57dec27bec82268a90951 *gd80-10-26d3t08.flac

Comments
Add Comment
Other Sources (comments)
Updated lineage: Recording... (1) Source: CAUD... (0) Updated Source; SBD... (13) PLEASE NOTE: This is a... (0) flac16; Matrix by... (0) flac16; AUD: 2x... (0) flac16; Loge Dead... (0)
Date User Comment