Browse Collections Artists Sources   Search Dates

Add Show    List Management    Help


Grateful Dead 10/31/80
Radio City Music Hall, New York, NY
Comments Add Comment    Source Collectors    Add to Collection    Add to Want List    History
Source # 94270 Other Sources
Entered by Matt Vernon
Checksums flac-md5 , ffp
Disc Counts 2 / 3
Media Size
Date Circulated
Date Added
08/31/2008
08/31/2008
Source Summary flac16; Recording Info: Nakamichi 700 -> Master Cassette (Sony D5/Maxell UDXL-I & UDXL-II/Dolby B); Transfer Info: Master Cassette (Nakamichi DR-1/Dolby B) -> Sound Devices 744T (24bit/88.2k) -> Samplitude Professional v10.1 -> FLAC/16; Recorded By Steve Rolfe; All Transfers and Mastering By Charlie Miller 
  Archive
Source Information - Download Text | Download Zip
Grateful Dead - October 31, 1980
Radio City Music Hall - New York, NY

Recording Info:
Nakamichi 700 -> Master Cassette (Sony D5/Maxell UDXL-I & UDXL-II/Dolby B)

Transfer Info:
Master Cassette (Nakamichi DR-1/Dolby B) -> Sound Devices 744T (24bit/88.2k) ->
Samplitude Professional v10.1 -> FLAC/16
(3 Discs Audio / 2 Discs FLAC)

All Transfers and Mastering By Charlie Miller
[email protected]
August 30, 2008

Patch Source:
Sony ECM-280 -> Master Cassette -> PCM -> CD (shnid=1955) supplies:
Tuning (complete track)
Heaven Help The Fool (0:00 - 6:07)

Notes:
-- All disc changes are seamless
-- Recorded front row balcony
-- Thanks to Steve Rolfe for lending me his masters

Set 1:
d1t01 - Tuning
d1t02 - Heaven Help The Fool
d1t03 - Sage And Spirit
d1t04 - Little Sadie
d1t05 - Monkey And The Engineer
d1t06 - It Must Have Been The Roses
d1t07 - Cassidy
d1t08 - Bird Song ->
d1t09 - Ripple

Set 2:
d1t10 - Tuning
d1t11 - Jack Straw
d1t12 - Cold Rain And Snow
d1t13 - Me And My Uncle ->
d1t14 - Mexicali Blues
d2t01 - Ramble On Rose ->
d2t02 - Little Red Rooster
d2t03 - Brown Eyed Women ->
d2t04 - Looks Like Rain ->
d2t05 - Deal

Set 3:
d2t06 - Tuning
d2t07 - Don't Ease Me In ->
d2t08 - Lost Sailor ->
d2t09 - Saint Of Circumstance ->
d2t10 - Franklin's Tower ->
d2t11 - Drums ->
d3t01 - Space ->
d3t02 - Fire On The Mountain ->
d3t03 - Not Fade Away ->
d3t04 - Stella Blue ->
d3t05 - Goin' Down The Road Feeling Bad ->
d3t06 - Good Lovin'

Encore:
d3t07 - Uncle John's Band


SHNTOOL OUTPUT:
    length     expanded size   cdr  WAVE problems filename
     3:03.31       32354156    ---   --   -----   gd80-10-31d1t01.wav
     7:32.13       79763420    ---   --   -----   gd80-10-31d1t02.wav
     3:19.32       35178908    ---   --   -----   gd80-10-31d1t03.wav
     3:20.55       35409404    ---   --   -----   gd80-10-31d1t04.wav
     3:17.56       34882556    ---   --   -----   gd80-10-31d1t05.wav
     7:20.39       77707772    ---   --   -----   gd80-10-31d1t06.wav
     7:25.04       78507452    ---   --   -----   gd80-10-31d1t07.wav
     9:28.20      100242284    ---   --   -----   gd80-10-31d1t08.wav
     4:36.56       48818156    ---   --   -----   gd80-10-31d1t09.wav
     1:59.07       21008108    ---   --   -----   gd80-10-31d1t10.wav
     6:07.72       64908188    ---   --   -----   gd80-10-31d1t11.wav
     6:45.31       71514956    ---   --   -----   gd80-10-31d1t12.wav
     2:57.47       31333388    ---   --   -----   gd80-10-31d1t13.wav
     4:44.62       50243468    ---   --   -----   gd80-10-31d1t14.wav
     7:49.49       82846892    ---   --   -----   gd80-10-31d2t01.wav
    10:35.19      112058732    ---   --   -----   gd80-10-31d2t02.wav
     5:15.43       55667180    ---   --   -----   gd80-10-31d2t03.wav
     6:52.01       72679196    ---   --   -----   gd80-10-31d2t04.wav
     6:34.01       69503996    ---   --   -----   gd80-10-31d2t05.wav
     0:31.07        5484908    ---   --   -----   gd80-10-31d2t06.wav
     3:36.21       38151836    ---   --   -----   gd80-10-31d2t07.wav
     6:07.17       64778828    ---   --   -----   gd80-10-31d2t08.wav
     6:31.46       69080636    ---   --   -----   gd80-10-31d2t09.wav
     8:53.59       94160012    ---   --   -----   gd80-10-31d2t10.wav
    12:15.46      129762236    ---   --   -----   gd80-10-31d2t11.wav
     4:02.30       42759404    ---   --   -----   gd80-10-31d3t01.wav
    10:27.04      110612252    ---   --   -----   gd80-10-31d3t02.wav
     6:22.02       67389548    ---   --   -----   gd80-10-31d3t03.wav
     9:47.15      103582124    ---   --   -----   gd80-10-31d3t04.wav
     6:15.57       66284108    ---   --   -----   gd80-10-31d3t05.wav
     7:44.52       81971948    ---   --   -----   gd80-10-31d3t06.wav
     8:42.06       92094956    ---   --   -----   gd80-10-31d3t07.wav
   200:22.25     2120741008 B                     (totals for 32 files)
Show Checksums
flac-md5
42ec9a540acc64c008b10fb06f613a0a *gd80-10-31d1t01.flac
ca0c64cefdd206b611847108ce383616 *gd80-10-31d1t02.flac
7a7470743dc1afbb6346d98a600a92ab *gd80-10-31d1t03.flac
b1bbb2a3f62114e575535f82917c4a9b *gd80-10-31d1t04.flac
a7947ddc2a0447f3932c163c72ec12f1 *gd80-10-31d1t05.flac
f101be12f7688398ead5513a1b85fb86 *gd80-10-31d1t06.flac
d1a90c7b38b4d458d2196c2e419a9ed3 *gd80-10-31d1t07.flac
cb8283f9321589b674bad2bdea96ffb9 *gd80-10-31d1t08.flac
b1f011c3aa058b07370d1810db19d5ad *gd80-10-31d1t09.flac
561fb131aa9b14f0fa2c8a89406b32ea *gd80-10-31d1t10.flac
24eed7519cd02b581dfef880ab4673ae *gd80-10-31d1t11.flac
da239dc14c759a220ccff692c4e3635c *gd80-10-31d1t12.flac
9a95fe052b3f2c9ff52d837e80603f6a *gd80-10-31d1t13.flac
01f6d931de6bad8b3ee3525a9f7e0447 *gd80-10-31d1t14.flac
3c24cca1c863f4ac8ba16d02b2093a58 *gd80-10-31d2t01.flac
e06466b3f4fd8eed9999ec609c629b6a *gd80-10-31d2t02.flac
c1aa85ced9c3219c550c65f6d8d9978a *gd80-10-31d2t03.flac
282a13c630b9a5a5f710d8d540a10c3d *gd80-10-31d2t04.flac
fe3c0c9b0a70829b7cc17dd982f87b75 *gd80-10-31d2t05.flac
f262d38852100926b678ae948cbfad9e *gd80-10-31d2t06.flac
770e47fb5f5731780f9bb3bde1560ea6 *gd80-10-31d2t07.flac
55ffeab2b630b9fc3826ed7c9c61f666 *gd80-10-31d2t08.flac
78e752b5406944434ceb4ef6965c1d5d *gd80-10-31d2t09.flac
d6820f674c0d2e1a5fd779384da32d7d *gd80-10-31d2t10.flac
f24b6a078ec0b3e7c5a65c9aef70943b *gd80-10-31d2t11.flac
626d3486d7de51c8c0982e3f09330feb *gd80-10-31d3t01.flac
0d0889eb95f91ebb54a15d3958ddd205 *gd80-10-31d3t02.flac
5506af1f356b7a8e976ba6ed511b32bf *gd80-10-31d3t03.flac
4331179c7894c9f726b3b31cacbaefba *gd80-10-31d3t04.flac
cd0c37864a8d21642347147299504be2 *gd80-10-31d3t05.flac
ff8e96a9efc39d34be2fe21a27501d33 *gd80-10-31d3t06.flac
246c9a497005eddfd16bcfbb58b5e18a *gd80-10-31d3t07.flac
ffp
gd80-10-31d1t01.flac:83aa88c13132c2cd6beca12d191320f5
gd80-10-31d1t02.flac:f79baf74415b42747d771848c2de1007
gd80-10-31d1t03.flac:f326b818f0bb56862173e0d48c67db0d
gd80-10-31d1t04.flac:81a74e580005733aa355166989b995b7
gd80-10-31d1t05.flac:eae2e430fbe657e3aef17f7022bab834
gd80-10-31d1t06.flac:e37b563c8b435ea86ccf249cb35b93e3
gd80-10-31d1t07.flac:199121c3a21d5a56cb76bb98a7bc2de8
gd80-10-31d1t08.flac:9458a8ce32040d16cf77375b3531f288
gd80-10-31d1t09.flac:a75e50fa751f3163702560aeeeaa6752
gd80-10-31d1t10.flac:a1b7126b59b2688cf904e106b2edab1d
gd80-10-31d1t11.flac:e5874a3c3e332b82e8a3c009c0a04dae
gd80-10-31d1t12.flac:b26bf615c62f7777f83055f609dd6ff5
gd80-10-31d1t13.flac:75eb3338cf7af6b4cfeaa1a03954a083
gd80-10-31d1t14.flac:a5be0108a116d670ed8703dd2afb5b6a
gd80-10-31d2t01.flac:94fe72b24ab009ba763c07ea404d8bcc
gd80-10-31d2t02.flac:d2572e330d2b1bc92c3f76e45495c3e0
gd80-10-31d2t03.flac:3e2dbec986eb11f4ee65b07fde5940f5
gd80-10-31d2t04.flac:d339041ba1f165048da892258bd71082
gd80-10-31d2t05.flac:cfdf84ba60e117281dd33acf1401eaa7
gd80-10-31d2t06.flac:0de413fb1b7d0b1f213937785db50f23
gd80-10-31d2t07.flac:44f64c4ce4a5f4d09c4627a48221e75a
gd80-10-31d2t08.flac:8f33cc808f4c25d1e3705f995cdee208
gd80-10-31d2t09.flac:b45d8946e14c745ad7885206f810dd5f
gd80-10-31d2t10.flac:5b09463f5913194b47565de95c49c168
gd80-10-31d2t11.flac:f14002968bf5bace38cc04e8e0bf91eb
gd80-10-31d3t01.flac:2b822657b0e74fdfaa7a166678bd7091
gd80-10-31d3t02.flac:ed87bbd84cd8335c1d3f59bcd23de25a
gd80-10-31d3t03.flac:16b2f7b535444bdd948dbb5b0c16e730
gd80-10-31d3t04.flac:3ce8d34056b3870b5338881b25e8d5f1
gd80-10-31d3t05.flac:90156e5017d8ab2d3d22a96fb75ce29d
gd80-10-31d3t06.flac:e1e8962c1b57e9d21d577d32d81ba686
gd80-10-31d3t07.flac:07a72a5fe1a8ed51bf56b4027909f45d

Comments
Add Comment
Other Sources (comments)
Recording by Jim Wise:... (2) Source: Acoustic:... (4) flac16; Acoustic:... (1) flac16; Recording... (0) flac16; Loge Dead... (0) flac16; 3 Source... (0) flac24; Partial... (0) flac16/48kHz;... (0) flac24; Cassette... (0) flac24; Updated... (3) flac16; Updated... (3) flac16; Source:... (0) flac24; Source:... (0) flac16; Source:... (0) flac16; Source Info:... (0)
Date User Comment