Browse Collections Artists Sources   Search Dates

Add Show    List Management    Help


Grateful Dead 04/15/83
Community War Memorial Auditorium, Rochester, NY
Comments Add Comment    Source Collectors    Add to Collection    Add to Want List    History
Source # 94282 Other Sources
Entered by Matt Vernon
Checksums flac-md5 , ffp
Disc Counts 2 / 3
Media Size
Date Circulated
Date Added
09/01/2008
09/01/2008
Source Summary flac16;Recording Info: (FOB) Audio Technica Mics -> Cassette Master (Sony D6/Maxell UDXL-II/Dolby B); Transfer Info:Cassette Master (Namamichi DR-1/Dolby B) -> Sound Devices 744T (24bit/96k) -> Samplitude Professional v10.1 -> FLAC/16; Recorded and Transfered By Charlie Miller (Previous transfers were not dolby decoded, this one is.) 
  Archive
Source Information - Download Text | Download Zip
Grateful Dead - April 15, 1983
War Memorial Auditorium - Rochester, NY

Recording Info:
(FOB) Audio Technica Mics -> Cassette Master (Sony D6/Maxell UDXL-II/Dolby B)

Transfer Info:
Cassette Master (Namamichi DR-1/Dolby B) -> Sound Devices 744T (24bit/96k) ->
Samplitude Professional v10.1 -> FLAC/16
(3 Discs Audio / 2 Discs FLAC)

Recorded and Transfered By Charlie Miller
[email protected]
August 30, 2008

Patch Info:
(FOB) Sennheiser 421 -> Cassette Master -> Dat -> CD (shnid=9974) supplies:
Little Star (0:31 - 0:40)
Drums (0:15 - end of track)
Space (0:00 - 0:30)
Around And Around (0:50 - 1:05)

Notes:
-- Set 2 is seamless
-- Recorded 15 feet in front of sbd, about 10 feet to the right
-- This was the first Grateful Dead show I taped
-- Unpatched cut during first few seconds of Around And Around
-- Previous transfers were not dolby decoded, this one is

Set One:
d1t01 - Tuning
d1t02 - Shakedown Street
d1t03 - My Brother Esau
d1t04 - Brown Eyed Women
d1t05 - Little Red Rooster
d1t06 - Dire Wolf
d1t07 - Lazy Lightning ->
d1t08 - Supplication ->
d1t09 - Deal

Set Two:
d2t01 - Tuning
d2t02 - Feel Like A Stranger
d2t03 - Samson And Delilah
d2t04 - Ship Of Fools
d2t05 - Maybe You Know
d3t01 - He's Gone ->
d3t02 - Little Star ->
d3t03 - Drums ->
d3t04 - Space ->
d3t05 - Throwing Stones ->
d3t06 - Not Fade Away ->
d3t07 - Goin' Down The Road Feeling Bad ->
d3t08 - Around And Around ->
d3t09 - Johnny B. Goode

Encore:
d3t10 - It's All Over Now, Baby Blue


SHNTOOL OUTPUT:
    length     expanded size   cdr  WAVE problems filename
     3:52.05       40936604    ---   --   -----   gd83-04-15d1t01.wav
    13:59.41      148096076    ---   --   -----   gd83-04-15d1t02.wav
     7:07.36       75407516    ---   --   -----   gd83-04-15d1t03.wav
     6:57.72       73728188    ---   --   -----   gd83-04-15d1t04.wav
     9:33.10      101100764    ---   --   -----   gd83-04-15d1t05.wav
     4:08.39       43838972    ---   --   -----   gd83-04-15d1t06.wav
     3:46.61       40009916    ---   --   -----   gd83-04-15d1t07.wav
     6:38.18       70249580    ---   --   -----   gd83-04-15d1t08.wav
     7:43.54       81800252    ---   --   -----   gd83-04-15d1t09.wav
     1:00.51       10703996    ---   --   -----   gd83-04-15d2t01.wav
     9:35.11      101455916    ---   --   -----   gd83-04-15d2t02.wav
     9:05.58       96274460    ---   --   -----   gd83-04-15d2t03.wav
     8:40.41       91824476    ---   --   -----   gd83-04-15d2t04.wav
     5:04.08       53644460    ---   --   -----   gd83-04-15d2t05.wav
    13:01.50      137886044    ---   --   -----   gd83-04-15d3t01.wav
     5:58.63       63299420    ---   --   -----   gd83-04-15d3t02.wav
     7:06.37       75233468    ---   --   -----   gd83-04-15d3t03.wav
    10:57.50      116012444    ---   --   -----   gd83-04-15d3t04.wav
     9:46.27      103433948    ---   --   -----   gd83-04-15d3t05.wav
     6:03.71       64200236    ---   --   -----   gd83-04-15d3t06.wav
     6:50.71       72491036    ---   --   -----   gd83-04-15d3t07.wav
     3:37.02       38283548    ---   --   -----   gd83-04-15d3t08.wav
     4:29.36       47536316    ---   --   -----   gd83-04-15d3t09.wav
     7:15.47       76844588    ---   --   -----   gd83-04-15d3t10.wav
   172:21.59     1824292224 B                     (totals for 24 files)
Show Checksums
flac-md5
40560e565e6c79a094cf59db69bb39a4 *gd83-04-15d1t01.flac
be247d02a76b74be0f1fedfcd9739915 *gd83-04-15d1t02.flac
83599e46dcc360ea25200ae1d6acb8b2 *gd83-04-15d1t03.flac
7ccff6ea541ca903edba401df1113bb7 *gd83-04-15d1t04.flac
1e3f5d77f80be1c5bdd1075c20e85fab *gd83-04-15d1t05.flac
356117a2f6e08144a339ed3449c4e6b4 *gd83-04-15d1t06.flac
8df9eeb447dacf7fc755bf622df7bb9c *gd83-04-15d1t07.flac
165218c842633ed19f619f16423dc821 *gd83-04-15d1t08.flac
c3eb5a4450dd7358c174bb17e5513bfe *gd83-04-15d1t09.flac
8b0112a245d2c8f4c5995bca855ad4a6 *gd83-04-15d2t01.flac
746ba5465b5f2f8b0929ec41b57ad4d9 *gd83-04-15d2t02.flac
eb70a02ea61153eb8ad2f897709d2b5d *gd83-04-15d2t03.flac
c27215d08de65afcbb804f6606ca55a5 *gd83-04-15d2t04.flac
1c840dd047e0c0f95136eb520c356f56 *gd83-04-15d2t05.flac
c9cd00b78b370d25a56e2b643d75c9b6 *gd83-04-15d3t01.flac
299a3e019247e00b230c5245094923e0 *gd83-04-15d3t02.flac
8068f77802432aac735347f1e541c928 *gd83-04-15d3t03.flac
6ac5a555bde08795d6edcca6fdb98916 *gd83-04-15d3t04.flac
fd3767c9883d6a8295fa19ee3977d651 *gd83-04-15d3t05.flac
2e53c840df4667fe65e792d64e8b986a *gd83-04-15d3t06.flac
abc59c0a1c3b2d3fd54561cb5ede4007 *gd83-04-15d3t07.flac
8697f8a23735fb4b874984ace107bdd1 *gd83-04-15d3t08.flac
935b859b1c5966b5910e4946d0fe6c62 *gd83-04-15d3t09.flac
e67445f22aa7adafbb6e3c4dc6d79f7d *gd83-04-15d3t10.flac
ffp
gd83-04-15d1t01.flac:9ac0a1cde2a0e684f923e51e387c38ef
gd83-04-15d1t02.flac:07d4cbb10511dba4527cdb6d4406ea18
gd83-04-15d1t03.flac:7a5e62787505785272715c299a17de32
gd83-04-15d1t04.flac:083d23cac48831dc3cfe11115bbd201a
gd83-04-15d1t05.flac:3fae6657094251389f91d96167a57e29
gd83-04-15d1t06.flac:5b3fca2b34eccfa5f86e7b1371526013
gd83-04-15d1t07.flac:d3a8464800d4493163cc30667d42715d
gd83-04-15d1t08.flac:e6cbb23cb6973fe1dbf41b3b38c89908
gd83-04-15d1t09.flac:6a8e71059e35e5d52c46e2a52d59cfae
gd83-04-15d2t01.flac:2cbfa093035a5b6efb2aebc9f9a8c98b
gd83-04-15d2t02.flac:7b97e8f35c1ab1bbd3d28a85779e6557
gd83-04-15d2t03.flac:0d2db7588499633157af96fd7a90f1f9
gd83-04-15d2t04.flac:1d2aea5094f5ad0025461e9fa7b30414
gd83-04-15d2t05.flac:c317642db6f62868d4b02a0bf85947b4
gd83-04-15d3t01.flac:de40eb57373c3b42a9e8d18029db4d16
gd83-04-15d3t02.flac:7fc12a13accb22cf3c06632f3ec40d8c
gd83-04-15d3t03.flac:899062e8111c33a15acdb45604fd74a2
gd83-04-15d3t04.flac:9e2fc1af0e63b141127a9665d0fe2cb5
gd83-04-15d3t05.flac:a3bc263571a605fcb9ba952f9365409b
gd83-04-15d3t06.flac:981a8e71e85304e42c3d7711d848dff3
gd83-04-15d3t07.flac:1e0b30f3ab743927b5e8905802c0835f
gd83-04-15d3t08.flac:3e16f9d4bfc39e4ab08b893b70da48d3
gd83-04-15d3t09.flac:d77e46d6562a438a9e4061fdce200db3
gd83-04-15d3t10.flac:8e4ef17a1167b69dc8a51e1da104df1a

Comments
Add Comment
Other Sources (comments)
Senn. 421?s > MC>DAT>CD;... (0) 2nd set; SBD>PCM>DAT>Sonic... (1) (FOB) Audio Technica Mics... (0) Recording Info: Set 1: SBD... (0) flac16; Recording... (0) flac24; Recording... (0) flac16;... (0) flac24; Recording... (0) flac16; AUD:... (0) flac16; 2 source... (0) flac16; Set 2... (0) flac16; aud cassette... (0) flac24; aud cassette... (0) flac24; source:... (0) flac16/44.1 ... (0) flac24/48 ... (0) flac16/44.1 ... (0) flac24/48 ... (0) flac24; Recording... (0)
Date User Comment