Browse Collections Artists Sources   Search Dates

Add Show    List Management    Help


Grateful Dead 04/15/83
Community War Memorial Auditorium, Rochester, NY
Comments Add Comment    Source Collectors    Add to Collection    Add to Want List    History
Source # 94283 Other Sources
Entered by Matt Vernon
Checksums ffp , flac-md5
Disc Counts 0 / 0
Media Size
Date Circulated
Date Added
09/01/2008
09/01/2008
Source Summary flac24; Recording Info:(FOB) Audio Technica Mics -> Cassette Master (Sony D6/Maxell UDXL-II/Dolby B); Transfer Info: Cassette Master (Namamichi DR-1/Dolby B) -> Sound Devices 744T (24bit/96k) -> Samplitude Professional v10.1 -> FLAC/24; Recorded and Transfered By Charlie Miller (Previous transfers were not dolby decoded, this one is.) 
  Archive
Source Information - Download Text | Download Zip
Grateful Dead - April 15, 1983
War Memorial Auditorium - Rochester, NY
**THIS IS A 24BIT SOURCE**

Recording Info:
(FOB) Audio Technica Mics -> Cassette Master (Sony D6/Maxell UDXL-II/Dolby B)

Transfer Info:
Cassette Master (Namamichi DR-1/Dolby B) -> Sound Devices 744T (24bit/96k) ->
Samplitude Professional v10.1 -> FLAC/24
(1 DVD FLAC)

Recorded and Transfered By Charlie Miller
[email protected]
August 30, 2008

Patch Info:
(FOB) Sennheiser 421 -> Cassette Master -> Dat -> CD (shnid=9974) supplies:
Little Star (0:31 - 0:40)
Drums (0:15 - end of track)
Space (0:00 - 0:30)
Around And Around (0:50 - 1:05)

Notes:
-- Recorded 15 feet in front of sbd, about 10 feet to the right
-- This was the first Grateful Dead show I taped
-- Unpatched cut during first few seconds of Around And Around
-- Previous transfers were not dolby decoded, this one is

Set One:
s1t01 - Tuning
s1t02 - Shakedown Street
s1t03 - My Brother Esau
s1t04 - Brown Eyed Women
s1t05 - Little Red Rooster
s1t06 - Dire Wolf
s1t07 - Lazy Lightning ->
s1t08 - Supplication ->
s1t09 - Deal

Set Two:
s2t01 - Tuning
s2t02 - Feel Like A Stranger
s2t03 - Samson And Delilah
s2t04 - Ship Of Fools
s2t05 - Maybe You Know
s2t06 - He's Gone ->
s2t07 - Little Star ->
s2t08 - Drums ->
s2t09 - Space ->
s2t10 - Throwing Stones ->
s2t11 - Not Fade Away ->
s2t12 - Goin' Down The Road Feeling Bad ->
s2t13 - Around And Around ->
s2t14 - Johnny B. Goode

Encore:
s2t15 - It's All Over Now, Baby Blue


SHNTOOL OUTPUT:
    length     expanded size   cdr  WAVE problems filename
     3:52.080     133678124    cxx   --   -----   gd83-04-15s1t01.wav
    13:59.547     483578924    cxx   --   -----   gd83-04-15s1t02.wav
     7:07.480     246228524    cxx   --   -----   gd83-04-15s1t03.wav
     6:57.960     240745004    cxx   --   -----   gd83-04-15s1t04.wav
     9:33.133     330124844    cxx   --   -----   gd83-04-15s1t05.wav
     4:08.520     143147564    cxx   --   -----   gd83-04-15s1t06.wav
     3:46.813     130644524    cxx   --   -----   gd83-04-15s1t07.wav
     6:38.240     229386284    cxx   --   -----   gd83-04-15s1t08.wav
     7:43.715     267099602    cxx   --   -----   gd83-04-15s1t09.wav
     1:00.680      34951724    cxx   --   -----   gd83-04-15s2t01.wav
     9:35.147     331284524    cxx   --   -----   gd83-04-15s2t02.wav
     9:05.773     314365484    cxx   --   -----   gd83-04-15s2t03.wav
     8:40.547     299834924    cxx   --   -----   gd83-04-15s2t04.wav
     5:04.107     175165484    cxx   --   -----   gd83-04-15s2t05.wav
    13:01.667     450240044    cxx   --   -----   gd83-04-15s2t06.wav
     5:58.840     206691884    cxx   --   -----   gd83-04-15s2t07.wav
     7:06.493     245660204    cxx   --   -----   gd83-04-15s2t08.wav
    10:57.667     378816044    cxx   --   -----   gd83-04-15s2t09.wav
     9:46.360     337743404    cxx   --   -----   gd83-04-15s2t10.wav
     6:03.947     209633324    cxx   --   -----   gd83-04-15s2t11.wav
     6:50.947     236705324    cxx   --   -----   gd83-04-15s2t12.wav
     3:37.027     125007404    cxx   --   -----   gd83-04-15s2t13.wav
     4:29.480     155220524    cxx   --   -----   gd83-04-15s2t14.wav
     7:15.607     250909478    cxx   --   -----   gd83-04-15s2t15.wav
   172:21.775    5956863168 B                     (totals for 24 files)
Show Checksums
ffp
gd83-04-15s1t01.flac:f9dcc57539ce0723209d41000b260b0f
gd83-04-15s1t02.flac:f170b920c963c3ac8bb30e4b440720f5
gd83-04-15s1t03.flac:c87752afcb7b4ce8d3393f1dec09e4ca
gd83-04-15s1t04.flac:a4a18babcc034c92968b2ac32dbe36a5
gd83-04-15s1t05.flac:909f1ccfcb00243278315b4b6d527230
gd83-04-15s1t06.flac:67913f44601fafcf09873c7897208aed
gd83-04-15s1t07.flac:65915318b386db2d6032aefedf204783
gd83-04-15s1t08.flac:14434c9cbb99cbe4eb29a1ab64c409a3
gd83-04-15s1t09.flac:345c7b90b5f2c33663a1c65f49f03f17
gd83-04-15s2t01.flac:2b427668cb71d57a3ea422f1a6c2d1ca
gd83-04-15s2t02.flac:67234e4d1c8c15273d2bfd6ef1eaac84
gd83-04-15s2t03.flac:d5bae1bd7895ce9807727d04be1d56cd
gd83-04-15s2t04.flac:433d27e392fa1846c885145ee145eff8
gd83-04-15s2t05.flac:1aa4b63949effa6c7cc08fde69a0d356
gd83-04-15s2t06.flac:756994f41f8e0002bdcd7bf30a7da8f4
gd83-04-15s2t07.flac:978c5ca642c7195dfc3a10a15e8a47f9
gd83-04-15s2t08.flac:0d5971d867233a090eeaea0c6bd3ff74
gd83-04-15s2t09.flac:2dda9c7181e3b8a6951f85acf60c3071
gd83-04-15s2t10.flac:229ffe7697a4e9d84d6328ada45b5d41
gd83-04-15s2t11.flac:e4bbc07a3a5f4ebf8e1f89e4a667d8ac
gd83-04-15s2t12.flac:087ace1b49f167ddb5ae4674fb253971
gd83-04-15s2t13.flac:de7b6e6bafa257f989bd2738e1004c30
gd83-04-15s2t14.flac:df7ee7d9bc4a471103f56c4cccb8c1c6
gd83-04-15s2t15.flac:07279e0e3c18ec74ab08c746c2931964
flac-md5
4a8a34fa935612ebe6302ff69da8cf82 *gd83-04-15s1t01.flac
376c40ca0936b533167d11c9c824b6db *gd83-04-15s1t02.flac
d0f698a6812356bfbcfd8138eccfc911 *gd83-04-15s1t03.flac
37e775d9088f48e1945e9756e6b6266e *gd83-04-15s1t04.flac
0495b3a6fc458303148de47d0dfd85e9 *gd83-04-15s1t05.flac
b850a832f8df30b7bb5c12b8b13c8ae5 *gd83-04-15s1t06.flac
85ee95c56116ceb2a6dbcbddba632151 *gd83-04-15s1t07.flac
17d15443a68330d3c0aed391ed7b69e6 *gd83-04-15s1t08.flac
8d77150d563b846e10cc35958a81260b *gd83-04-15s1t09.flac
1770293aa48e535abed10b4e65b5eaeb *gd83-04-15s2t01.flac
ab4a40c798262aff31c4e9fb976fabf3 *gd83-04-15s2t02.flac
44315fdc38d97b4dfe425042639cb01e *gd83-04-15s2t03.flac
1e2ad6b8af85dc5c83363ba691898ad2 *gd83-04-15s2t04.flac
54c6fe71575443dd16a14aebad7fd6b6 *gd83-04-15s2t05.flac
1fe88944e558e8e7059074c9fc8f3a0b *gd83-04-15s2t06.flac
bb04d20f8b2ece9bfd8e2eb0e7e5c461 *gd83-04-15s2t07.flac
f506a92ca4e6a1d478423a2837fbcc56 *gd83-04-15s2t08.flac
028e77d2294cbccc59e3145acc8f20e6 *gd83-04-15s2t09.flac
50c6cd0b5d7e558358135bb715df7ba9 *gd83-04-15s2t10.flac
1651b8705968c28b4f7c5cb9a6d3cec9 *gd83-04-15s2t11.flac
aa2fc05d81cd515a5160d94a4bc71f0f *gd83-04-15s2t12.flac
34ee020475ed047e233c52d1c3ebd80a *gd83-04-15s2t13.flac
d1c4f6c836b892d95a8db2b4635796f7 *gd83-04-15s2t14.flac
dedb579943bf5bb190165348891cc8bb *gd83-04-15s2t15.flac

Comments
Add Comment
Other Sources (comments)
Senn. 421?s > MC>DAT>CD;... (0) 2nd set; SBD>PCM>DAT>Sonic... (1) (FOB) Audio Technica Mics... (0) Recording Info: Set 1: SBD... (0) flac16; Recording... (0) flac24; Recording... (0) flac16;... (0) flac16;Recording... (0) flac16; AUD:... (0) flac16; 2 source... (0) flac16; Set 2... (0) flac16; aud cassette... (0) flac24; aud cassette... (0) flac24; source:... (0) flac16/44.1 ... (0) flac24/48 ... (0) flac16/44.1 ... (0) flac24/48 ... (0) flac24; Recording... (0)
Date User Comment