Browse Collections Artists Sources   Search Dates

Add Show    List Management    Help


Ratdog 08/30/08
Red Rocks Amphitheatre, Morrison, CO
Comments Add Comment    Source Collectors    Add to Collection    Add to Want List    History
Source # 94292 Other Sources
Entered by ziko
Checksums ffp
Disc Counts 2 / 2
Media Size
Date Circulated
Date Added

09/01/2008
Source Summary flac16;Source: Schoeps CCM4V'S(din)>Lunatec V2>Sound Devices 722 (24/48); DSP: Sound Devices 722>Sound Forge 7.0>CD Wave>flac(16); Recorded By: The Z-Man 
Source Information - Download Text | Download Zip
Ratdog
Red Rocks
Morrison, Colorado
8/30/2008

Source: Schoeps CCM4V'S(din)>Lunatec V2>Sound Devices 722 (24/48)
location: bOB/DFC/KFC/ZFC/AARP Row 16, Between Seats 62 and 63 7' High
DSP: Sound Devices 722>Sound Forge 7.0>CD Wave>flac(16)
Recorded By: The Z-Man
Seeded By: The Z-Man

Disc I

01 Tuning
02 Jam >
03 Help on the Way >
04 Slipknot! >
05 *Loser >
06 #Jam >
07 #Bird Song >
08 #Loose Lucy >
09 #Bertha

Disc II

01 @Looks Like Rain
02 $The Times They Are A Changin'
03 West L. A. Fadeaway >
04 Ashes and Glass >
05 Jam >
06 Drum Solo >
07 Jam >
08 Morning Dew
Encore:
09 Not Fade Away

* With Derek Trucks on Guitar
# With Warren Haynes on Guitar
@ Bob Weir on Acoustic Guitar
$ Susan Tedechi on Vocals

ratdog2008-08-30d01t01.flac:450c52a7504c777ec41f92e4ab515eb9
ratdog2008-08-30d01t02.flac:1dd39d426a6e5b87b07e72a1189e9b59
ratdog2008-08-30d01t03.flac:5fb046e3622685752d2fd64c53300276
ratdog2008-08-30d01t04.flac:25976a172652aa72fe66815f2a34af72
ratdog2008-08-30d01t05.flac:5055b2334fad9977d2a46607161b3378
ratdog2008-08-30d01t06.flac:d0a16976c0d83124661e2a859a40c659
ratdog2008-08-30d01t07.flac:e3ac9f8e605a3043ad0d556675467af1
ratdog2008-08-30d01t08.flac:683f30fd3e083a4216439df7b6967bf3
ratdog2008-08-30d01t09.flac:c231a1ed615f566a9beac91d9ade5321
ratdog2008-08-30d02t01.flac:b0d97f1bf40d196e4faa12784b0ab5b8
ratdog2008-08-30d02t02.flac:27ecb94b1c13c2b78d4dbaabaed38243
ratdog2008-08-30d02t03.flac:c8e92ae9d8db38b3bf356ba2c0b146b4
ratdog2008-08-30d02t04.flac:fbb433d809450e3102da1941bc292d98
ratdog2008-08-30d02t05.flac:b99784b35cde1301688739761748f720
ratdog2008-08-30d02t06.flac:b35a93f01fdbfc2a1a18aa803438d92c
ratdog2008-08-30d02t07.flac:7c38acf72298fb1c8a944ec721180f1a
ratdog2008-08-30d02t08.flac:ea9400a2a9a785d9ce2dbe1c41d9bc81
ratdog2008-08-30d02t09.flac:4dee113dda856281e0d66cda0c87e0a2

shntool 3.0.4
Copyright (C) 2000-2007 Jason Jordan

    length     expanded size    cdr  WAVE problems  fmt   ratio  filename
     0:52.40        9266924 B   ---   --   ---xx   flac  0.4225  ratdog2008-08-30d01t01.flac
     4:29.41       47548076 B   ---   --   ---xx   flac  0.5309  ratdog2008-08-30d01t02.flac
     5:48.08       61406060 B   ---   --   ---xx   flac  0.5408  ratdog2008-08-30d01t03.flac
     7:01.25       74323244 B   ---   --   ---xx   flac  0.5648  ratdog2008-08-30d01t04.flac
    12:20.56      130667756 B   ---   --   ---xx   flac  0.5210  ratdog2008-08-30d01t05.flac
     4:48.52       50925548 B   ---   --   ---xx   flac  0.5021  ratdog2008-08-30d01t06.flac
    11:17.70      119587484 B   ---   --   ---xx   flac  0.5176  ratdog2008-08-30d01t07.flac
     8:49.48       93428540 B   ---   --   ---xx   flac  0.5693  ratdog2008-08-30d01t08.flac
     9:37.25      101841644 B   ---   --   ---xx   flac  0.5627  ratdog2008-08-30d01t09.flac
    11:34.17      122461628 B   ---   --   ---xx   flac  0.4969  ratdog2008-08-30d02t01.flac
     9:59.07      105680108 B   ---   --   ---xx   flac  0.5004  ratdog2008-08-30d02t02.flac
     9:06.43       96415580 B   ---   --   ---xx   flac  0.5497  ratdog2008-08-30d02t03.flac
     9:49.15      103934924 B   ---   --   ---xx   flac  0.5555  ratdog2008-08-30d02t04.flac
     4:11.52       44398748 B   ---   --   ---xx   flac  0.4463  ratdog2008-08-30d02t05.flac
     2:20.31       24768956 B   ---   --   ---xx   flac  0.5255  ratdog2008-08-30d02t06.flac
     0:48.23        8521340 B   ---   --   ---xx   flac  0.4162  ratdog2008-08-30d02t07.flac
    11:19.74      119949692 B   ---   --   ---xx   flac  0.5004  ratdog2008-08-30d02t08.flac
     9:41.26      102549596 B   ---   --   ---xx   flac  0.5354  ratdog2008-08-30d02t09.flac
   133:56.53     1417675848 B                            0.5263  (18 files)

Show Checksums
ffp
ratdog2008-08-30d01t01.flac:450c52a7504c777ec41f92e4ab515eb9
ratdog2008-08-30d01t02.flac:1dd39d426a6e5b87b07e72a1189e9b59
ratdog2008-08-30d01t03.flac:5fb046e3622685752d2fd64c53300276
ratdog2008-08-30d01t04.flac:25976a172652aa72fe66815f2a34af72
ratdog2008-08-30d01t05.flac:5055b2334fad9977d2a46607161b3378
ratdog2008-08-30d01t06.flac:d0a16976c0d83124661e2a859a40c659
ratdog2008-08-30d01t07.flac:e3ac9f8e605a3043ad0d556675467af1
ratdog2008-08-30d01t08.flac:683f30fd3e083a4216439df7b6967bf3
ratdog2008-08-30d01t09.flac:c231a1ed615f566a9beac91d9ade5321
ratdog2008-08-30d02t01.flac:b0d97f1bf40d196e4faa12784b0ab5b8
ratdog2008-08-30d02t02.flac:27ecb94b1c13c2b78d4dbaabaed38243
ratdog2008-08-30d02t03.flac:c8e92ae9d8db38b3bf356ba2c0b146b4
ratdog2008-08-30d02t04.flac:fbb433d809450e3102da1941bc292d98
ratdog2008-08-30d02t05.flac:b99784b35cde1301688739761748f720
ratdog2008-08-30d02t06.flac:b35a93f01fdbfc2a1a18aa803438d92c
ratdog2008-08-30d02t07.flac:7c38acf72298fb1c8a944ec721180f1a
ratdog2008-08-30d02t08.flac:ea9400a2a9a785d9ce2dbe1c41d9bc81
ratdog2008-08-30d02t09.flac:4dee113dda856281e0d66cda0c87e0a2

Comments
Add Comment
Other Sources (comments)
flac16;Source: Milab... (0) flac16;Source: AKG... (0)
Date User Comment