Browse Collections Artists Sources   Search Dates

Add Show    List Management    Help


Grateful Dead 06/21/71
Chateau D'Herouville, Herouville, France
Comments Add Comment    Source Collectors    Add to Collection    Add to Want List    History
Source # 94356 Other Sources
Entered by dr.unclear
Checksums flac-md5 , ffp
Disc Counts 2 / 2
Media Size
Date Circulated
Date Added
09/03/2008
09/03/2008
Source Summary flac16; Recording Info:SBD -> Master Reel -> Dat -> CD; Transfer Info: CD -> Samplitude Professional v10.1 -> Adobe Audition v1.5 -> FLAC; All Transfers and Mastering By Charlie Miller 
  Archive
Source Information - Download Text | Download Zip
Grateful Dead - June 21, 1971
Chateau d'Herouville - Herouville, France

Recording Info:
SBD -> Master Reel -> Dat -> CD

Transfer Info:
CD -> Samplitude Professional v10.1 -> Adobe Audition v1.5 -> FLAC
(2 Discs Audio / 2 Discs FLAC)

All Transfers and Mastering By Charlie Miller
[email protected]
July 18, 2008

Patch Info:
SBD -> Master Reel -> ? -> Dat -> CD supplies:
Johnny B. Goode (complete track)

Notes:
-- Disc change is seamless
-- The intro to Truckin' is cut
-- First few notes to Me And My Uncle are cut
-- Thanks to Rob Eaton for the discs
-- Thanks to Joe B. Jones for his help with the pitch correction

Setlist:
d1t01 - Truckin'
d1t02 - Loser
d1t03 - Me And Bobby McGee
d1t04 - Next Time You See Me
d1t05 - Morning Dew
d1t06 - Me And My Uncle
d1t07 - Hard To Handle
d1t08 - China Cat Sunflower ->
d1t09 - I Know You Rider
d1t10 - The Promised Land
d1t11 - Deal
d2t01 - Playing In The Band
d2t02 - Big Boss Man
d2t03 - Black Peter
d2t04 - Bertha
d2t05 - Casey Jones
d2t06 - That's It For The Other One ->
d2t07 - Wharf Rat
d2t08 - Sugar Magnolia
d2t09 - Sing Me Back Home
d2t10 - Johnny B. Goode


SHNTOOL OUTPUT:
    length     expanded size   cdr  WAVE problems filename
     9:52.66      104584076    ---   --   -----   gd71-06-21d1t01.wav
     8:26.59       89397212    ---   --   -----   gd71-06-21d1t02.wav
     7:59.27       84559148    ---   --   -----   gd71-06-21d1t03.wav
     3:53.58       41237660    ---   --   -----   gd71-06-21d1t04.wav
    11:19.68      119935580    ---   --   -----   gd71-06-21d1t05.wav
     4:09.56       44055356    ---   --   -----   gd71-06-21d1t06.wav
    11:09.47      118122188    ---   --   -----   gd71-06-21d1t07.wav
     5:07.07       54171308    ---   --   -----   gd71-06-21d1t08.wav
     8:01.28       84914300    ---   --   -----   gd71-06-21d1t09.wav
     2:52.60       30481964    ---   --   -----   gd71-06-21d1t10.wav
     6:05.38       64475420    ---   --   -----   gd71-06-21d1t11.wav
     4:41.57       49702508    ---   --   -----   gd71-06-21d2t01.wav
     6:04.30       64280204    ---   --   -----   gd71-06-21d2t02.wav
     8:18.18       87889580    ---   --   -----   gd71-06-21d2t03.wav
     5:49.44       61667132    ---   --   -----   gd71-06-21d2t04.wav
     5:48.16       61424876    ---   --   -----   gd71-06-21d2t05.wav
    16:45.46      177390236    ---   --   -----   gd71-06-21d2t06.wav
     8:21.61       88519916    ---   --   -----   gd71-06-21d2t07.wav
     6:07.69       64901132    ---   --   -----   gd71-06-21d2t08.wav
     9:32.05      100912604    ---   --   -----   gd71-06-21d2t09.wav
     3:40.32       38883308    ---   --   -----   gd71-06-21d2t10.wav
   154:08.67     1631505708 B                     (totals for 21 files)
Show Checksums
flac-md5
b69ead6ba329746150cef38b3bfd1e6f *gd71-06-21d1t01.flac
5f4d67eb0b8ceaa314a9d6b6ecbe9dec *gd71-06-21d1t02.flac
b2438737f0d52d21ce7397006e25a832 *gd71-06-21d1t03.flac
a09cf6223b3bf3f6db31855dddf840bd *gd71-06-21d1t04.flac
d7d1221daee0755ef27bff6ac9f4d68f *gd71-06-21d1t05.flac
30138867f47893d12899da302ca3e134 *gd71-06-21d1t06.flac
72ab23e84451f8a17773311afce5150f *gd71-06-21d1t07.flac
e4e597730ef9f7d7ab420edbcbbaa39d *gd71-06-21d1t08.flac
b0558c72ea9eaf80ee5ce2e9d607d19f *gd71-06-21d1t09.flac
7609f202aa5cf4599a89ede09750cb14 *gd71-06-21d1t10.flac
2616cdf08438dcb0d2d4073bfd799678 *gd71-06-21d1t11.flac
f2e5237a6d381a529a16e17f5aff16f0 *gd71-06-21d2t01.flac
7477e61d600a220405c63495c8cd7775 *gd71-06-21d2t02.flac
1d8857535a42a6b2c1f4f7f16e2e7a11 *gd71-06-21d2t03.flac
da1a63fffd9d714e16a1dc4882698032 *gd71-06-21d2t04.flac
355e92421277fe9d60ef1ca083fb6b3e *gd71-06-21d2t05.flac
afe8b1a81b4fd28d7c4db95e0e6539ab *gd71-06-21d2t06.flac
3fc6af8f2c08cfd91e861bc8eae1afb7 *gd71-06-21d2t07.flac
c1360b122acb13085400d2f79805eced *gd71-06-21d2t08.flac
22ebe26d4584918fddab8ef8564a32e0 *gd71-06-21d2t09.flac
3397b871a627579e79c9404213a3d250 *gd71-06-21d2t10.flac
ffp
gd71-06-21d1t01.flac:e2fe02777e214916115a65a1b81b861f
gd71-06-21d1t02.flac:25e480d730a6e67013315705f93782bb
gd71-06-21d1t03.flac:236a0b030cd7b1969c6491286a302a65
gd71-06-21d1t04.flac:ca35bf53ada939b34902502ab37b6b67
gd71-06-21d1t05.flac:f8415e0c4b4f84a062d99ab2c7c2ab97
gd71-06-21d1t06.flac:d4091072dd096b46c61b78f57e1bd483
gd71-06-21d1t07.flac:c90dee97ebe5eb802648678794d8cb65
gd71-06-21d1t08.flac:a05d314905f40f3bcfc85eca93ddbd16
gd71-06-21d1t09.flac:cfbc8ffd764b5f0ff42dd5f84d287ffb
gd71-06-21d1t10.flac:f1421eacdbf45154ab39f9c781cbd091
gd71-06-21d1t11.flac:6a7de070a6d8eca1bdac9e6896f71513
gd71-06-21d2t01.flac:4c73096e0bbfd12028c04ba938315ee4
gd71-06-21d2t02.flac:4e2b3c5f28db58d839c892a43c924b1d
gd71-06-21d2t03.flac:0b65983033742132c345150fed602bc3
gd71-06-21d2t04.flac:94240a0099700c6011f991dc624882f4
gd71-06-21d2t05.flac:47b90292163719f930b2a6dccd0ddaf6
gd71-06-21d2t06.flac:69d5c0846181cf7f8e0cc2265f9f54ee
gd71-06-21d2t07.flac:0c98ff8a231c49dd14208a24e0fa772b
gd71-06-21d2t08.flac:6bfe9f0d5addf4845f99cd3e96b06e19
gd71-06-21d2t09.flac:a446896c182dc7d748c6bf1ad2c5f6a5
gd71-06-21d2t10.flac:fe00a967d2db4425fbadf7288a85cf5b

Comments
Add Comment
Other Sources (comments)
SBD MR> ?> D> CD patched... (3)
Date User Comment