Browse Collections Artists Sources   Search Dates

Add Show    List Management    Help


Grateful Dead 05/13/83
Greek Theatre, U. Of California, Berkeley, CA
Comments Add Comment    Source Collectors    Add to Collection    Add to Want List    History
Source # 94393 Other Sources
Entered by dr.unclear
Checksums flac-md5 , ffp
Disc Counts 2 / 3
Media Size
Date Circulated
Date Added
09/06/2008
09/05/2008
Source Summary flac16; Recording Info: (FOB) Sony ECM-220T -> Cassette Master (Sony TC-D5M/Fuji Metal Tape/Dolby B); Transfer Info: Cassette Master (Nakamichi DR-1/Dolby B) -> Sound Devices 744T (24bit/96k) -> Samplitude Professional v10.1 -> FLAC/16; Taped By Rango Keshavan; All Transfers and Mastering By Charlie Miller 
  Archive
Source Information - Download Text | Download Zip
Grateful Dead - May 13, 1983
Greek Theatre - Berkeley, CA
University Of California

Recording Info:
(FOB) Sony ECM-220T -> Cassette Master (Sony TC-D5M/Fuji Metal Tape/Dolby B)

Transfer Info:
Cassette Master (Nakamichi DR-1/Dolby B) -> Sound Devices 744T (24bit/96k) ->
Samplitude Professional v10.1 -> FLAC/16
(3 Discs Audio / 2 Discs FLAC)

All Transfers and Mastering By Charlie Miller
[email protected]
September 5, 2008

Patch Info:
Nakamichi 700 -> Cassette Master -> Cassette -> CD (shnid=32809) supplies:
Wharf Rat (0:01 - 0:09)

Unknown Audience Source supplies:
Good Lovin' (8:35 - end of track)

Notes:
-- Set 2 is seamless
-- Thanks to Rango Keshavan for lending me his masters

Set 1:
d1t01 - Tuning
d1t02 - Cold Rain And Snow
d1t03 - Greatest Story Ever Told
d1t04 - West L.A. Fadeaway
d1t05 - Hell In A Bucket
d1t06 - Loser
d1t07 - Little Red Rooster
d1t08 - Bird Song
d1t09 - Let It Grow

Set 2:
d2t01 - China Cat Sunflower ->
d2t02 - I Know You Rider ->
d2t03 - Estimated Prophet ->
d2t04 - Eyes Of The World ->
d2t05 - Drums ->
d3t01 - Space ->
d3t02 - Throwing Stones ->
d3t03 - The Other One ->
d3t04 - Wharf Rat ->
d3t05 - Around And Around ->
d3t06 - Good Lovin'


SHNTOOL OUTPUT:
    length     expanded size   cdr  WAVE problems filename
     1:52.71       19923836    ---   --   -----   gd83-05-13d1t01.wav
     7:03.41       74713676    ---   --   -----   gd83-05-13d1t02.wav
     4:32.68       48140780    ---   --   -----   gd83-05-13d1t03.wav
     9:06.34       96394412    ---   --   -----   gd83-05-13d1t04.wav
     5:26.52       57628748    ---   --   -----   gd83-05-13d1t05.wav
     7:17.72       77256188    ---   --   -----   gd83-05-13d1t06.wav
     8:44.09       92454812    ---   --   -----   gd83-05-13d1t07.wav
    10:34.09      111858812    ---   --   -----   gd83-05-13d1t08.wav
    12:15.57      129788108    ---   --   -----   gd83-05-13d1t09.wav
     8:33.33       90570860    ---   --   -----   gd83-05-13d2t01.wav
     6:41.45       70842284    ---   --   -----   gd83-05-13d2t02.wav
    12:16.34      129910412    ---   --   -----   gd83-05-13d2t03.wav
    20:03.04      212218652    ---   --   -----   gd83-05-13d2t04.wav
     9:02.17       95648828    ---   --   -----   gd83-05-13d2t05.wav
    10:27.61      110746316    ---   --   -----   gd83-05-13d3t01.wav
     9:40.39      102403772    ---   --   -----   gd83-05-13d3t02.wav
     7:49.56       82863356    ---   --   -----   gd83-05-13d3t03.wav
     8:54.20       94244684    ---   --   -----   gd83-05-13d3t04.wav
     4:42.26       49805996    ---   --   -----   gd83-05-13d3t05.wav
     9:39.34      102215612    ---   --   -----   gd83-05-13d3t06.wav
   174:45.32     1849630144 B                     (totals for 20 files)
Show Checksums
flac-md5
0d19651ee86e306a6b61aff5aa4394bb *gd83-05-13d1t01.flac
681a0271718385957570027ec332df44 *gd83-05-13d1t02.flac
633f69c6e3e501499ca825fffd2ec45c *gd83-05-13d1t03.flac
1e33c6ec6ad19ae066d136b7fcbc1d38 *gd83-05-13d1t04.flac
63c822e3815fd95e30c7093231e8e5be *gd83-05-13d1t05.flac
456311ad30a19ada965ddd92bb5d7282 *gd83-05-13d1t06.flac
ffd06c8d436d2e5ff17d31930f164149 *gd83-05-13d1t07.flac
39150a9f39c12069eca52b4e306d255a *gd83-05-13d1t08.flac
7c07ce80c240326b3da893eb0499c3f3 *gd83-05-13d1t09.flac
014d322a7adcb992cea4181a8c3afeb0 *gd83-05-13d2t01.flac
f7607cc7e518a4de3c44864f0cc332f4 *gd83-05-13d2t02.flac
c29be9fffaaa5c1c34cf5a8d464729af *gd83-05-13d2t03.flac
c8e71013fe9ed397f24e670071654480 *gd83-05-13d2t04.flac
720a49d7a6faf01e78304a60871006c1 *gd83-05-13d2t05.flac
f5410ba6343749fd2d9886feeb579ce1 *gd83-05-13d3t01.flac
2ca5a9f372369b82f4bba67e105d1e2b *gd83-05-13d3t02.flac
edf82b8e350ed80cbde46aabc627ffe3 *gd83-05-13d3t03.flac
cbf3390b3986c54a6589f5a88db8ada5 *gd83-05-13d3t04.flac
3c4ef29c963d3b76404cfa5e7ee3491f *gd83-05-13d3t05.flac
3f3aa7092008ae9bf5d81f10cc77931c *gd83-05-13d3t06.flac
ffp
gd83-05-13d1t01.flac:f0bf0b9be28ff88e126407fe5532425b
gd83-05-13d1t02.flac:e6105eecebc660b29cd2323a3ad44cd7
gd83-05-13d1t03.flac:0e6f96c4fcf390fd1d9c9088372d8d4d
gd83-05-13d1t04.flac:93fe33a2c71a227cb43f3d8749f181dd
gd83-05-13d1t05.flac:4b896de10913f5d7903a5e3e56e04d48
gd83-05-13d1t06.flac:4750ab810fd4ce8153f3ca022da713b0
gd83-05-13d1t07.flac:d8eb062d7c8cf48bedb2ae24fc656d4e
gd83-05-13d1t08.flac:44286f0ef13881c5cf356a3f735eb142
gd83-05-13d1t09.flac:b3185547f54a5eec2169cee89a5b36bb
gd83-05-13d2t01.flac:3d3ca9fc44a3380a1ada984bf3e0f9a4
gd83-05-13d2t02.flac:d54efc3491edba2c844b7b7eebbd49be
gd83-05-13d2t03.flac:a3f7f53b697ba58908c193077e23ccbe
gd83-05-13d2t04.flac:626a0fa07e620b9f8ebd51122820361c
gd83-05-13d2t05.flac:51649e1ba178b765b76f778e41792e43
gd83-05-13d3t01.flac:efa23a1dd97990e924675ce39c8a756c
gd83-05-13d3t02.flac:2a049d3b427d20329d83cd293b53cd56
gd83-05-13d3t03.flac:cc4ff97c3bd9ff9c55456b5511afa279
gd83-05-13d3t04.flac:1988e21f903e5c7644beb874b2386502
gd83-05-13d3t05.flac:d4e11bd324b01a9e29e345f17192ff44
gd83-05-13d3t06.flac:d1a6c5d23e256e93133073e9e7445334

Comments
Add Comment
Other Sources (comments)
FOB Sony Mics > D5 > DAT;... (0) FOB Sony... (1) Set 1 Recording Info: SBD... (1) flac16; 2 Nak 700's... (2) flac16; Recording... (0) flac16; Recording... (0) flac16; Audience... (0)
Date User Comment