Browse Collections Artists Sources   Search Dates

Add Show    List Management    Help


Grateful Dead 05/14/83
Greek Theatre, U. Of California, Berkeley, CA
Comments Add Comment    Source Collectors    Add to Collection    Add to Want List    History
Source # 94396 Other Sources
Entered by dr.unclear
Checksums ffp , flac-md5
Disc Counts 2 / 2
Media Size
Date Circulated
Date Added
09/06/2008
09/05/2008
Source Summary flac16; Recording Info:(FOB) Sony ECM-220T -> Cassette Master (Sony TC-D5M/Fuji Metal Tape/Dolby B); Transfer Info: Cassette Master (Nakamichi DR-1/Dolby B) -> Sound Devices 744T (24bit/96k) -> Samplitude Professional v10.1 -> FLAC/16; Taped By Rango Keshavan; All Transfers and Mastering By Charlie Miller 
  Archive
Source Information - Download Text | Download Zip
Grateful Dead - May 14, 1983
Greek Theatre - Berkeley, CA
University Of California

Recording Info:
(FOB) Sony ECM-220T -> Cassette Master (Sony TC-D5M/Fuji Metal Tape/Dolby B)

Transfer Info:
Cassette Master (Nakamichi DR-1/Dolby B) -> Sound Devices 744T (24bit/96k) ->
Samplitude Professional v10.1 -> FLAC/16
(2 Discs Audio / 2 Discs FLAC)

All Transfers and Mastering By Charlie Miller
[email protected]
September 5, 2008

Patch Info:
(FOB) Beyer M201 -> Cassette Master -> CD (shnid=33502) supplies:
Drums (6:31 - 6:40)

Notes:
-- Disc change is seamless
-- Thanks to Rango Keshavan for lending me his masters

Set 1:
d1t01 - Tuning
d1t02 - Feel Like A Stranger
d1t03 - Friend Of The Devil
d1t04 - Me And My Uncle ->
d1t05 - Mexicali Blues
d1t06 - Happy Birthday Billy
d1t07 - Tennessee Jed
d1t08 - My Brother Esau
d1t09 - Bertha

Set 2:
d1t10 - Shakedown Street
d2t01 - Playing In The Band ->
d2t02 - China Doll ->
d2t03 - Drums ->
d2t04 - Space ->
d2t05 - The Wheel ->
d2t06 - Playing In The Band ->
d2t07 - Morning Dew ->
d2t08 - Sugar Magnolia

Encore:
d2t09 - One More Saturday Night


SHNTOOL OUTPUT:
    length     expanded size   cdr  WAVE problems filename
     1:22.43       14565980    ---   --   -----   gd83-05-14d1t01.wav
     7:59.56       84627356    ---   --   -----   gd83-05-14d1t02.wav
     9:49.42      103998428    ---   --   -----   gd83-05-14d1t03.wav
     3:14.74       34395692    ---   --   -----   gd83-05-14d1t04.wav
     5:06.20       54025484    ---   --   -----   gd83-05-14d1t05.wav
     1:03.17       11153228    ---   --   -----   gd83-05-14d1t06.wav
     8:19.31       88096556    ---   --   -----   gd83-05-14d1t07.wav
     5:25.31       57402956    ---   --   -----   gd83-05-14d1t08.wav
     6:25.03       67921100    ---   --   -----   gd83-05-14d1t09.wav
    12:43.39      134684972    ---   --   -----   gd83-05-14d1t10.wav
    12:36.49      133473692    ---   --   -----   gd83-05-14d2t01.wav
    11:04.70      117294284    ---   --   -----   gd83-05-14d2t02.wav
     6:46.43       71719580    ---   --   -----   gd83-05-14d2t03.wav
     6:46.52       71740748    ---   --   -----   gd83-05-14d2t04.wav
     7:01.60       74405564    ---   --   -----   gd83-05-14d2t05.wav
     3:52.66       41080076    ---   --   -----   gd83-05-14d2t06.wav
    10:01.54      106143452    ---   --   -----   gd83-05-14d2t07.wav
    11:02.06      116790956    ---   --   -----   gd83-05-14d2t08.wav
     4:44.61       50241116    ---   --   -----   gd83-05-14d2t09.wav
   135:27.67     1433761220 B                     (totals for 19 files)
Show Checksums
ffp
gd83-05-14d1t01.flac:8cf70f6bcfb99474e6fb5fb912a50208
gd83-05-14d1t02.flac:b0760c222af03dd2da5d82c39c4a28cb
gd83-05-14d1t03.flac:a190eb88f2348e9bbb44ad126fb4c3f4
gd83-05-14d1t04.flac:9b628edc4df557097b931dc22bd9bd49
gd83-05-14d1t05.flac:9d5faf93f4c448221ff9792893744e53
gd83-05-14d1t06.flac:c34d691c2c088378aba5ea0a7d938dd9
gd83-05-14d1t07.flac:5ab53b6b2b8470d3e581255ec3b761f2
gd83-05-14d1t08.flac:e68a3935d2e24714b11e54ca175e6821
gd83-05-14d1t09.flac:af4f072845ed31e99b3d81b82e6d5d2a
gd83-05-14d1t10.flac:f29552e07f6f6c888a936de86a2e0afb
gd83-05-14d2t01.flac:5c3aca5e2dd55c8cfc293d371650630c
gd83-05-14d2t02.flac:ec20907010919e20375c1459536656c5
gd83-05-14d2t03.flac:b9acd3d90a64c46972afdb752d280607
gd83-05-14d2t04.flac:b1d60a61648c363a7a3081f4d0621a00
gd83-05-14d2t05.flac:5282f5d65f339eefa9c150d90f3e4c3c
gd83-05-14d2t06.flac:eafc209a25d69ea21f378a1eda8a444f
gd83-05-14d2t07.flac:957c6846123904e933d5c6a9d46415dd
gd83-05-14d2t08.flac:fcba03240165766627ab657d2dcd4ea3
gd83-05-14d2t09.flac:12f81925a5d4064c04e914ca5dedb2b6
flac-md5
857ac895dbf75072fd4e4566cacd5240 *gd83-05-14d1t01.flac
862aeb47ce56b9c6307d33322735fe8b *gd83-05-14d1t02.flac
9af005f8ba6742332bc5c20dc337c261 *gd83-05-14d1t03.flac
9fdcb7009699441432f93f3f8ac1ea6a *gd83-05-14d1t04.flac
b7725ab31c4a65c9b0cdfbe276698a56 *gd83-05-14d1t05.flac
ea317f8387f3c819ed4f650bcf4c94ba *gd83-05-14d1t06.flac
8f96afce8b12866e75f2aaa8cf3351ce *gd83-05-14d1t07.flac
d55a0e31c643daa41ce1c9b1dac0ffe5 *gd83-05-14d1t08.flac
033173091b35094772a1b084fb8a8181 *gd83-05-14d1t09.flac
4cafa12d876ac1b4fa2d7b924ee8bc0c *gd83-05-14d1t10.flac
c08bb4644b261ffd6a4a8ade71044956 *gd83-05-14d2t01.flac
b567b4e46d70cf43545956e12121148d *gd83-05-14d2t02.flac
a856ac9d903d3a4579f72897492d2601 *gd83-05-14d2t03.flac
02c6e626018ce8a55a2047e58e3f5376 *gd83-05-14d2t04.flac
55125e0e2ab5ac11fe59c3204fa35bba *gd83-05-14d2t05.flac
61e168a2ed088e6282aeb27009c44574 *gd83-05-14d2t06.flac
b5c900f87386f0229804c0e84e3fdf2b *gd83-05-14d2t07.flac
bad00ed1334955bc08acbeed1734db3b *gd83-05-14d2t08.flac
4e2b40a96f2ab06dd9f70b36e12bcb06 *gd83-05-14d2t09.flac

Comments
Add Comment
Other Sources (comments)
FOB: 3 Sennheiser 421's >... (1) FOB: Sennheiser 421's >... (0) FOB Sennheiser 421s>Sony... (0) *Set 1 Only*
...
(1) flac16; Master:... (0) flac16; Set 1 only,... (0) flac16; Recording... (0) flac16; Source:... (0) Source: Audience recording... (1) flac16/48kHz;... (1) flac24/48 Master:... (0) flac16/44.1 ... (0)
Date User Comment