Browse Collections Artists Sources   Search Dates

Add Show    List Management    Help


Grateful Dead 05/15/83
Greek Theatre, U. Of California, Berkeley, CA
Comments Add Comment    Source Collectors    Add to Collection    Add to Want List    History
Source # 94397 Other Sources
Entered by Gary Field
Checksums flac-md5 , ffp
Disc Counts 2 / 3
Media Size
Date Circulated
Date Added
09/06/2008
09/06/2008
Source Summary flac16; Recording Info: (FOB) Sony ECM-220T -> Cassette Master (Sony TC-D5M/Fuji Metal Tape/Dolby B); Transfer Info: Cassette Master (Nakamichi DR-1/Dolby B) -> Sound Devices 744T (24bit/96k) -> Samplitude Professional v10.1 -> FLAC/16; Taped By Rango Keshavan; All Transfers and Mastering By Charlie Miller 
  Archive
Source Information - Download Text | Download Zip
Grateful Dead - May 15, 1983
Greek Theatre - Berkeley, CA
University Of California

Recording Info:
(FOB) Sony ECM-220T -> Cassette Master (Sony TC-D5M/Fuji Metal Tape/Dolby B)

Transfer Info:
Cassette Master (Nakamichi DR-1/Dolby B) -> Sound Devices 744T (24bit/96k) ->
Samplitude Professional v10.1 -> FLAC/16
(3 Discs Audio / 2 Discs FLAC)

All Transfers and Mastering By Charlie Miller
[email protected]
September 5, 2008

Patch Info:
Nakamichi 700 -> Cassette Master -> Cassette -> CD (shnid=34167) supplies:
Drums (3:04 - 3:12)
Throwing Stones (0:00 - 0:07)

Notes:
-- Set 2 is seamless
-- Thanks to Rango Keshavan for lending me his masters
-- Drums and Space with Airto Moreira and Flora Purim
-- Not Fade Away with John Cipollina

Set 1:
d1t01 - Touch Of Grey
d1t02 - New Minglewood Blues
d1t03 - Ramble On Rose
d1t04 - Cassidy
d1t05 - Brown Eyed Women
d1t06 - Hell In A Bucket
d1t07 - Althea
d1t08 - Looks Like Rain ->
d1t09 - Deal

Set 2:
d2t01 - Happy Birthday Dan Healy
d2t02 - Help On The Way ->
d2t03 - Slipknot! ->
d2t04 - Franklin's Tower ->
d2t05 - Samson And Delilah
d2t06 - He's Gone ->
d2t07 - Drums ->
d3t01 - Space ->
d3t02 - Truckin' ->
d3t03 - Stella Blue ->
d3t04 - Throwing Stones ->
d3t05 - Not Fade Away

Encore:
d3t06 - It's All Over Now, Baby Blue


SHNTOOL OUTPUT:
    length     expanded size   cdr  WAVE problems filename
     6:31.47       69082988    ---   --   -----   gd83-05-15d1t01.wav
     8:26.00       89258444    ---   --   -----   gd83-05-15d1t02.wav
     7:14.71       76724636    ---   --   -----   gd83-05-15d1t03.wav
     5:42.19       60373532    ---   --   -----   gd83-05-15d1t04.wav
     5:50.20       61787084    ---   --   -----   gd83-05-15d1t05.wav
     5:12.52       55159148    ---   --   -----   gd83-05-15d1t06.wav
     8:16.47       87604988    ---   --   -----   gd83-05-15d1t07.wav
     8:24.59       89044412    ---   --   -----   gd83-05-15d1t08.wav
     7:39.31       81040556    ---   --   -----   gd83-05-15d1t09.wav
     1:09.70       12336284    ---   --   -----   gd83-05-15d2t01.wav
     3:39.12       38659868    ---   --   -----   gd83-05-15d2t02.wav
     5:08.21       54380636    ---   --   -----   gd83-05-15d2t03.wav
    13:19.48      141056540    ---   --   -----   gd83-05-15d2t04.wav
     8:16.60       87635564    ---   --   -----   gd83-05-15d2t05.wav
     9:17.49       98370092    ---   --   -----   gd83-05-15d2t06.wav
    13:19.72      141112988    ---   --   -----   gd83-05-15d2t07.wav
    15:10.74      160698092    ---   --   -----   gd83-05-15d3t01.wav
     7:22.16       78006476    ---   --   -----   gd83-05-15d3t02.wav
     9:24.17       99529628    ---   --   -----   gd83-05-15d3t03.wav
     8:26.06       89272556    ---   --   -----   gd83-05-15d3t04.wav
     8:30.49       90079292    ---   --   -----   gd83-05-15d3t05.wav
     7:02.68       74600780    ---   --   -----   gd83-05-15d3t06.wav
   173:27.08     1835814584 B                     (totals for 22 files)
Show Checksums
flac-md5
34d7f3c5bf0203ffb1ad985ce5fee67e *gd83-05-15d1t01.flac
3693987f45e27a8d91fe91483d5de494 *gd83-05-15d1t02.flac
4849f65ef4f5afc93df7f24767eb2337 *gd83-05-15d1t03.flac
4d2f513193c503728ffc674a74eaa454 *gd83-05-15d1t04.flac
b19779d7b409c7c9e6b6d4185bcd2234 *gd83-05-15d1t05.flac
0e68b2b83249866f51eab052a93080bf *gd83-05-15d1t06.flac
1a0948129fada756e1e800d21ca4303e *gd83-05-15d1t07.flac
30162f9bf02386501194fc949fc08457 *gd83-05-15d1t08.flac
bff4ba40015e94675bc3ce3c879c75eb *gd83-05-15d1t09.flac
02e354955aa0d34a883dc1ce68d5dc9f *gd83-05-15d2t01.flac
96d5a2b9392f80a22d5d6ba302a4c81a *gd83-05-15d2t02.flac
cd3ea66ad23cdf601ce5e4698c055fa5 *gd83-05-15d2t03.flac
8e6e21f36d5776c17fdfc93db6d122f6 *gd83-05-15d2t04.flac
28068e69e1a86b48fa6b50820c2ed064 *gd83-05-15d2t05.flac
a7d5f132e9670947be59fa6bda7a8539 *gd83-05-15d2t06.flac
455a015bf0c18a51e99ab11eb04c11b7 *gd83-05-15d2t07.flac
dc42b5e7492312dd8668f06573db49f5 *gd83-05-15d3t01.flac
b9c641842327280d00b39931e18e07a5 *gd83-05-15d3t02.flac
0b0cd88e0ad5263cfa15d949152ed69f *gd83-05-15d3t03.flac
c2533d93aff2c338f9ccf364407ce965 *gd83-05-15d3t04.flac
a77d064bb3b0cd97c719449f4130c631 *gd83-05-15d3t05.flac
2adebe239de4c8ad8de4dcb290e30b96 *gd83-05-15d3t06.flac
ffp
gd83-05-15d1t01.flac:e4453575d3931bc4a1e6eddd3cfd9339
gd83-05-15d1t02.flac:f301ef53eaf8e26288fa24abd6b71dfe
gd83-05-15d1t03.flac:0f942d79e22491cb4ec7bd2f50bc919a
gd83-05-15d1t04.flac:26dc830153abd58b3fa0fd23b22b418c
gd83-05-15d1t05.flac:14f1d3eb358084f0ea212ad91e565480
gd83-05-15d1t06.flac:df169d0cf8b2532ba84c5a8f653cd956
gd83-05-15d1t07.flac:a5efc7f620197302b75e5f38d3df3c5f
gd83-05-15d1t08.flac:510a32d0136e0d63c1add461a4d1ec0c
gd83-05-15d1t09.flac:2b04486d893aa770b28421c367bd5452
gd83-05-15d2t01.flac:d6392fb7798ac58ebd77962bd00d40bd
gd83-05-15d2t02.flac:24aa12e053a468b3b0db99f73a3d9862
gd83-05-15d2t03.flac:6a9fb64928764c10a92667841d688198
gd83-05-15d2t04.flac:a7712c156d2a3b8881ef4e7ae720ff10
gd83-05-15d2t05.flac:3cdda336ba780245f93ed9d411a5bc6e
gd83-05-15d2t06.flac:a21898ec0538e471efd9b3d92c2d58d5
gd83-05-15d2t07.flac:6b0b2b7f70ecef61ee960a3e1fda4ace
gd83-05-15d3t01.flac:378b8b848da4b517de2891f6958e6e5d
gd83-05-15d3t02.flac:9d22bed7b00fbfc13d9c16ee59ac29c5
gd83-05-15d3t03.flac:fc32ab72bde46cb05d265b1c8731f26d
gd83-05-15d3t04.flac:a9064c85d98043d64da908b98c69d2b3
gd83-05-15d3t05.flac:49427579f5512b3d819d28d4165972d6
gd83-05-15d3t06.flac:2a15a0ac42f1db71515537e244890e00

Comments
Add Comment
Other Sources (comments)
FOB Aud Sony ECM 220T >... (0) flac16; Set 2 ONLY;... (0) flac16; Recording... (0) flac16; Source:... (0)
Date User Comment