Browse Collections Artists Sources   Search Dates

Add Show    List Management    Help


Phish ??/??/87
Trey's Thesis, Goddard College (TMWSIY), Plainfield, VT
Comments Add Comment    Source Collectors    Add to Collection    Add to Want List    History
Source # 946 Other Sources
Entered by Matt Vernon
Checksums orig-shn-md5 , ffp
Disc Counts 1 / 1
Media Size
Date Circulated
Date Added
<11/19/00
07/01/2000
Source Summary from bootleg CD, with beginning of Wilson patched in from cassette; via other1 
Source Information - Download Text | Download Zip
- - - - - - -  original txt file - - - - - - - - - -
The Man Who Stepped Into Yesterday
CD > CDR
xx/xx/xx
56:06 min

   1.Narration
   2.Narration
   3.Lizards
   4.Narration
   5.Tela
   6.Narration
   7.Wilson
   8.Narration
   9.AC/DC Bag
  10.Narration
  11.Colonel Forbin's Ascent
  12.Famous Mockingbird
  13.Narration
  14.Sloth
  15.Narration
  16.Possum

- - - - - - - txt file addendum November 2017 - - - - - -

The “source summary” for this shnid states:

Source Summary: from bootleg CD, with beginning of Wilson patched in from cassette; via other1

Matt Vernon contacted “Pete the other1” and asked if he had any recollection of this source.  He did and provided a flac file set extracted from his archived cd’s. He also provided a photo jpeg of his original handwritten notes which I have transcribed except for the track times.  I have used the shntool output for the track times which matches his handwritten times.

- - - - start of Pete’s handwritten notes - - - - - -

Phish - The Man Who Stepped Into Yesterday

CD >CDR

   1.The Man Who Stepped Into Yesterday / Narration
   2.Narration ->
   3.Lizards  ->
   4.Lizards/Narration/Tela ->
   5.Tela
   6.Narration/Jam/Wilson ->
   7.Wilson
   8.Narration / ACDC Bag
   9.AC/DC Bag
  10.Narration
  11.Colonel Forbin's Ascent
  12.Famous Mockingbird
  13.Narration
  14.The Sloth
  15.Narration
  16.Possum

End of track 6, Beginning of track 7 spliced in from another source since it was missing in this original

- - - - end of Pete’s handwritten notes - - - - - -

This is shntool output from flac files from Pete:

    length     expanded size    cdr  WAVE problems  fmt   ratio  filename
     3:56.07       41646908 B   ---   --   ---xx   flac  0.4762  ph-tmwsiy-patch-d1t01.flac
     1:45.28       18587900 B   ---   --   ---xx   flac  0.5159  ph-tmwsiy-patch-d1t02.flac
     5:50.10       61763564 B   ---   --   ---xx   flac  0.5483  ph-tmwsiy-patch-d1t03.flac
     3:05.60       32775164 B   ---   --   ---xx   flac  0.5257  ph-tmwsiy-patch-d1t04.flac
     6:15.45       66255884 B   ---   --   ---xx   flac  0.4869  ph-tmwsiy-patch-d1t05.flac
     3:26.45       36444284 B   ---   --   ---xx   flac  0.5344  ph-tmwsiy-patch-d1t06.flac
     3:25.35       36244364 B   ---   --   ---xx   flac  0.5408  ph-tmwsiy-patch-d1t07.flac
     0:31.05        5480204 B   ---   --   ---xx   flac  0.5388  ph-tmwsiy-patch-d1t08.flac
     3:08.50       33280844 B   ---   --   ---xx   flac  0.5500  ph-tmwsiy-patch-d1t09.flac
     3:18.15       34962524 B   ---   --   ---xx   flac  0.4979  ph-tmwsiy-patch-d1t10.flac
     4:36.20       48733484 B   ---   --   ---xx   flac  0.5047  ph-tmwsiy-patch-d1t11.flac
     7:36.70       80603084 B   ---   --   ---xx   flac  0.4744  ph-tmwsiy-patch-d1t12.flac
     1:30.57       16010108 B   ---   --   ---xx   flac  0.4829  ph-tmwsiy-patch-d1t13.flac
     2:15.55       23943404 B   ---   --   ---xx   flac  0.5063  ph-tmwsiy-patch-d1t14.flac
     1:13.15       12912524 B   ---   --   ---xx   flac  0.4861  ph-tmwsiy-patch-d1t15.flac
     4:30.37       47715068 B   ---   --   ---xx   flac  0.5104  ph-tmwsiy-patch-d1t16.flac
    56:26.29      597359312 B                            0.5086  (16 files)



Here is the shntool output for the files which match checksums for shnid = 945:


    length     expanded size    cdr  WAVE problems  fmt   ratio  filename
     3:56.07       41646796 B   -b-   --   ---xx    shn  0.5357  Track01.wav.shn
     1:45.27       18585548 B   ---   --   ---xx    shn  0.5858  Track02.wav.shn
     5:50.10       61763564 B   ---   --   ---xx    shn  0.6242  Track03.wav.shn
     3:05.59       32772812 B   ---   --   ---xx    shn  0.6016  Track04.wav.shn
     6:15.45       66255884 B   ---   --   ---xx    shn  0.5463  Track05.wav.shn
     3:26.07       36354908 B   ---   --   ---xx    shn  0.6045  Track06.wav.shn
     3:12.13       33899420 B   ---   --   ---xx    shn  0.6383  Track07.wav.shn
     0:31.05        5480204 B   ---   --   ---xx    shn  0.6155  Track08.wav.shn
     3:08.39       33254972 B   ---   --   ---xx    shn  0.6326  Track09.wav.shn
     3:18.15       34962524 B   ---   --   ---xx    shn  0.5521  Track10.wav.shn
     4:36.19       48731132 B   ---   --   ---xx    shn  0.5606  Track11.wav.shn
     7:36.69       80600732 B   ---   --   ---xx    shn  0.5253  Track12.wav.shn
     1:30.54       16003052 B   ---   --   ---xx    shn  0.5253  Track13.wav.shn
     2:15.54       23941052 B   ---   --   ---xx    shn  0.5662  Track14.wav.shn
     1:13.15       12912524 B   ---   --   ---xx    shn  0.5380  Track15.wav.shn
     4:30.38       47717080 B   -b-   --   ---xx    shn  0.5717  Track16.wav.shn
    56:12.26      594882204 B                            0.5729  (16 files)

Note that the checksums originally listed for shnid = 946 match those of shnid = 945 except for tracks 6 & 7 which is presumably from the patch listed in the source summary but not in the info file.

From the above two shntool outputs, although the timings are close and in some cases the number of samples match exactly they do not differ in only tracks 6 & 7.

For this reason I have submitted the flac ftp’s for Pete’s source as I received it as being most faithful to the originally intended patch.

Matt Vernon 11/19/17


Show Checksums
orig-shn-md5
358b9d1dcfa81645be7aa91bbdce75b2 *tmwsiyt08.wav.shn
7fb800fe445be9a909273fd1b03177d7 *tmwsiyt02.wav.shn
033a0d210302cd777fb2f228034f53d4 *tmwsiyt03.wav.shn
8dac55d18f4e4a8bb1234c0e8fc6ab7d *tmwsiyt04.wav.shn
1b541f1ec7c6688b828cf2da317bed40 *tmwsiyt05.wav.shn
e50dea8a7607290e13071fe4b99488ca *tmwsiyt06.wav.shn
c990e4a367c47d80013a0b697ce9c5ed *tmwsiyt07.wav.shn
a6ea7bd54b9a670af552edd9150ebeca *tmwsiyt01.wav.shn
b37d7e1bc35cbef5589230a6d1a93fbc *tmwsiyt09.wav.shn
9519eac141abebf1bc56b5ef90975522 *tmwsiyt10.wav.shn
731c1811e1c488a42cfbed80be44e4c1 *tmwsiyt11.wav.shn
ace29bc73d83d5b726d2c880440719f5 *tmwsiyt12.wav.shn
8a2258a852c8e6bf3816b981ee9e0080 *tmwsiyt13.wav.shn
53cd49b8ca3864a9176a44dbb91058d9 *tmwsiyt14.wav.shn
571e344a1d7a3f207eb382fd21e67532 *tmwsiyt15.wav.shn
9d115b73344595611e64214da3a30f5a *tmwsiyt16.wav.shn
ffp
ph-tmwsiy-patch-d1t01.flac:79efba0ea5c69bde288c8b6e870c6eca
ph-tmwsiy-patch-d1t02.flac:50d8f108296ee83b0fb509ad0e1b062d
ph-tmwsiy-patch-d1t03.flac:a8f8a76ccdf8e1085743cdea0e5cd3b0
ph-tmwsiy-patch-d1t04.flac:08267b836041dde17e242bffcf5bf4fd
ph-tmwsiy-patch-d1t05.flac:e4720252515ec09d1046437684fc6bc9
ph-tmwsiy-patch-d1t06.flac:d1d2dde5840636c9f2f2d88162523b7f
ph-tmwsiy-patch-d1t07.flac:41cc364fe10c1d492dd291a76486b06b
ph-tmwsiy-patch-d1t08.flac:af43fd1d5eb4691570e4b4e78d741dce
ph-tmwsiy-patch-d1t09.flac:c664df1448a9792a5f1ce1a62fdebf0c
ph-tmwsiy-patch-d1t10.flac:77b3a40abfec75bb43aa07c7f8c0d7de
ph-tmwsiy-patch-d1t11.flac:92aaf2521ba9239a74bfa586c2fa9ac3
ph-tmwsiy-patch-d1t12.flac:fa5eeb113a04769e14fc5d96b99c7dd6
ph-tmwsiy-patch-d1t13.flac:cf667abd73933fcef7fbdd78111ccc7b
ph-tmwsiy-patch-d1t14.flac:060d4ef91adaa7a2f7846cac823399a3
ph-tmwsiy-patch-d1t15.flac:6f91f7d01c78decdd8fdc4b7b7d717f6
ph-tmwsiy-patch-d1t16.flac:98d00d2174fdaa56046ccad675710781

Comments
Add Comment
Other Sources (comments)
from bootleg CD; missing... (1) Copyright 1987 Ernest... (3) Cass/5 > Aiwa AD-S750 >... (1) Cass/5 > Aiwa AD-S750 >... (0)
Date User Comment
01/02/2017 mvernon same as shnid = 945 except for tracks 6 & 7 presumably from the patch listed in the source summary but not in the info file