Browse Collections Artists Sources   Search Dates

Add Show    List Management    Help


Grateful Dead 10/01/94
Boston Garden, Boston, MA
Comments Add Comment    Source Collectors    Add to Collection    Add to Want List    History
Source # 95066 Other Sources
Entered by dr.unclear
Checksums flac-md5 , ffp
Disc Counts 2 / 3
Media Size
Date Circulated
Date Added
10/03/2008
10/03/2008
Source Summary flac16; Matrix by Hunter Seamons using Soundtrack/Final Cut Pro(SHN>AIFF>Soundtrack>Final Cut>WAV>FLAC) 
  Archive
Source Information - Download Text | Download Zip
Grateful Dead
Boston Garden
Boston, MA
October 1, 1994

Jerry Garcia - Lead Guitar, Vocals
Mickey Hart - Drums
Bill Kreutzmann - Drums
Phil Lesh - Electric Bass, Vocals
Bob Weir - Rhythm Guitar, Vocals
Vince Welnick - Keyboards, Vocals



*Matrix*

----------------------------------------------------
SBD:

Bertha remaster of Master DAT source.

SBD>>DAT>>CDA>>SHN>>DAW(Bertha)>>CDA - Sound A+

Digitally remastered using a custom built, Dual-DAW, nicknamed Bertha, by [email protected] on March 23, 2002.

----------------------------------------------------
AUD:

Taper: Dave Minor
Source: PMB Microphones (German)(1) FOB> Sony D7 @48k
Transfer: 48k DAT clone> Sony PCM-R300 > Monster SPDIF digital cable > RMEdigi96/8PAD >
SoundForge 6.0 (rec, 48>44 highest setting with anti-alias filter) > CDWav (splits) > mkw > shn (seekable)

SHNtool used to verify track boundaries
Transfered by Marc Pujol 01/30/2003
Source DAT from Dave Minor via Matt Vernon

- some brief overload distortion a few places during drums

"[The PMB mics] were made by a now defunct German company, about 15 years ago. The mic's are self powered (AA batt in each), the 2 sets of capsules that I have are the shotguns (about 12" length) and the small capsules which have a figure-8 pick-up pattern. Balanced output at the mic.  They were owned by a speaker designer from England. Before working w/ Home audio, he worked w/ pro sound. He did lots of recording @ small to large venues in the UK. He recorded for broadcasts. He stuck w/ these mic.s through the end of his recording days."

---------------------------------------------------
Thank you to Jay Ashley and Hub Spencer for the SBD transfer,
to Dave Minor for recording the show,
and to Marc Pujol and Matt Vernon for the AUD transfer.

Matrix by Hunter Seamons using Soundtrack/Final Cut Pro(SHN>AIFF>Soundtrack>Final Cut>WAV>FLAC)
October 3, 2008


Set I
------
d1t01 - Help On The Way ->
d1t02 - Slipknot! ->
d1t03 - Franklin's Tower
d1t04 - Walkin' Blues
d1t05 - Althea
d1t06 - Me and My Uncle* ->
d1t07 - Big River*
d1t08 - Just Like Tom Thumb's Blues
d1t09 - So Many Roads ->
d1t10 - Promised Land

Set II
-----
d2t01 - Scarlet Begonias ->
d2t02 - Fire On The Mountain
d2t03 - Way To Go Home
d2t04 - Saint of Circumstance ->
d2t05 - Terrapin Station ->
d2t06 - Drums ->  
d3t01 - Space ->
d3t02 - The Last Time ->  
d3t03 - Stella Blue ->
d3t04 - One More Saturday Night

Encore
------
d3t05 - Liberty
  
* Weir on acoustic guitar


Notes:

1) Cuts in the SBD between some songs. One momentary cut in the SBD and AUD during Space.

2) Miniscule gaps at points in the sources, sometimes producing faint clicks.

3) Faint clicks removed using Soundtrack (at least the ones I noticed).

4) The show is seamless.


    length     expanded size    cdr  WAVE problems  fmt   ratio  filename
     3:51.04       40757852 B   ---   --   ---xx  gd94-10-01d1t01.flac
     5:24.12       57181868 B   ---   --   ---xx  gd94-10-01d1t02.flac
    12:18.48      130296140 B   ---   --   ---xx  gd94-10-01d1t03.flac
     5:50.11       61765916 B   ---   --   ---xx  gd94-10-01d1t04.flac
    10:41.41      113168876 B   ---   --   ---xx  gd94-10-01d1t05.flac
     2:47.35       29541164 B   ---   --   ---xx  gd94-10-01d1t06.flac
     7:26.56       78806156 B   ---   --   ---xx  gd94-10-01d1t07.flac
     7:11.42       76127228 B   ---   --   ---xx  gd94-10-01d1t08.flac
     7:17.28       77152700 B   ---   --   ---xx  gd94-10-01d1t09.flac
     4:56.00       52214444 B   ---   --   ---xx  gd94-10-01d1t10.flac
    11:43.73      124180940 B   ---   --   ---xx  gd94-10-01d2t01.flac
    16:44.30      177176204 B   ---   --   ---xx  gd94-10-01d2t02.flac
     6:48.36       72055916 B   ---   --   ---xx  gd94-10-01d2t03.flac
     7:48.12       82583468 B   ---   --   ---xx  gd94-10-01d2t04.flac
    16:21.66      173203676 B   ---   --   ---xx  gd94-10-01d2t05.flac
    11:52.54      125723852 B   ---   --   ---xx  gd94-10-01d2t06.flac
    18:03.04      191050652 B   ---   --   ---xx  gd94-10-01d3t01.flac
     6:00.67       63661628 B   ---   --   ---xx  gd94-10-01d3t02.flac
    11:19.71      119942636 B   ---   --   ---xx  gd94-10-01d3t03.flac
     5:16.01       55744796 B   ---   --   ---xx  gd94-10-01d3t04.flac
     8:27.74       89608892 B   ---   --   ---xx  gd94-10-01d3t05.flac
   188:12.15     1991945004 B                            0.5438  (21 files)


  
Show Checksums
flac-md5
76dd12d261f668cde6e096d8e322e06d *gd94-10-01d1t01.flac
9f417562a95795f459f1b350b1e4dfc8 *gd94-10-01d1t02.flac
b347479d25355d4f0efcae3726f1e0cf *gd94-10-01d1t03.flac
04f76c86116ae3b029dc79a95709e1b8 *gd94-10-01d1t04.flac
56293ab119cfc3d2a5fb604ab01f5732 *gd94-10-01d1t05.flac
b574eeedfd1235540ebbbeaa57dee0ce *gd94-10-01d1t06.flac
dfc5257efebe7153b845270c1a4ead3f *gd94-10-01d1t07.flac
fc6772b3868039ca9ed9580ad8ecf36a *gd94-10-01d1t08.flac
a69ee9102fa98b384e19755626208ce7 *gd94-10-01d1t09.flac
0fdfccab1edb26671641d137de03c8c1 *gd94-10-01d1t10.flac
6a023b02345903694b423d9c317b29ac *gd94-10-01d2t01.flac
a74cb33a0c327d3e05a7131077355f84 *gd94-10-01d2t02.flac
679a322dde035967a10a4615ead2e70b *gd94-10-01d2t03.flac
b83c22220176c2466754b5e713a43648 *gd94-10-01d2t04.flac
8260c3964fc1839d511887c99a6965d2 *gd94-10-01d2t05.flac
9c5f749e2362a3f03a41e62db7623372 *gd94-10-01d2t06.flac
6c003b66af14625101b1dbf4084e1180 *gd94-10-01d3t01.flac
ac09325fb0056de24c7a60c8d209ce24 *gd94-10-01d3t02.flac
583c6a08c5e3512b7720efecde7aa027 *gd94-10-01d3t03.flac
d7aa6686e9a662abebe4d86d5e3047af *gd94-10-01d3t04.flac
47a2312bb8b2e6ca561901a0d7c2cdbf *gd94-10-01d3t05.flac
ffp
gd94-10-01d1t01.flac:60fe6a3755e1c65d477cb0d12489bec7
gd94-10-01d1t02.flac:ea5f1ec5ae6dbc8bebde8ca29378bb04
gd94-10-01d1t03.flac:9b68b5ff5ed2b3986113cd9a5fe82f73
gd94-10-01d1t04.flac:bd7568f561fca33f011ae3cf2f931441
gd94-10-01d1t05.flac:aadce2222382d7b79dcf81837a1ca492
gd94-10-01d1t06.flac:e863e77bba92cbd73b2035fd1574663f
gd94-10-01d1t07.flac:05168210467ebba5e0cc40488a62b2cb
gd94-10-01d1t08.flac:a25c7fc3171b6bb422557fa3755c4ad5
gd94-10-01d1t09.flac:d17eb89130d071ac5ab7eb29a63adfc7
gd94-10-01d1t10.flac:d576b1353735b29f67e0f6dd4a648aa0
gd94-10-01d2t01.flac:ab16d5f75e7ca002711028d2c6d9961d
gd94-10-01d2t02.flac:3aed5dd69d6e340e6fdfd6da90c1a3df
gd94-10-01d2t03.flac:30aa2e5daa4ed8e339ccf6a4f4726723
gd94-10-01d2t04.flac:8c81ee738768cfb2efc9e72c9f803e35
gd94-10-01d2t05.flac:8b493d91f8353a42dc784629c510367f
gd94-10-01d2t06.flac:762a92a95bd246f408af3f2ee3876d5c
gd94-10-01d3t01.flac:40c25cf3448b8caacd5d258eec91d71b
gd94-10-01d3t02.flac:9312f7945ba13544c9d9e416ef2963d5
gd94-10-01d3t03.flac:4470429d93bf2c7bfdd62303f34089d7
gd94-10-01d3t04.flac:82740268722e90eac8823405962b3698
gd94-10-01d3t05.flac:c88b260d0bc2a30f3ff0282b376595ec

Comments
Add Comment
Other Sources (comments)
SBD> unknown analog? > DAT>... (3) SBD> Dat> CDR (Pre-Fm GDH... (3) Bertha Remaster of Master... (1) PMB Microphones (German)(1)... (0) Txt-file is exactly the... (0) flac16; Digital FOB... (7) flac16/48; Digital... (0) flac16; AKG... (0) flac16; AUD:... (0) flac16/48kHz; Rich... (0) flac16/48kHz; Master... (0)
Date User Comment