Browse Collections Artists Sources   Search Dates

Add Show    List Management    Help


Grateful Dead 09/26/91
Boston Garden, Boston, MA
Comments Add Comment    Source Collectors    Add to Collection    Add to Want List    History
Source # 95247 Other Sources
Entered by dr.unclear
Checksums flac-md5 , ffp
Disc Counts 2 / 3
Media Size
Date Circulated
Date Added
10/11/2008
10/11/2008
Source Summary flac16; Matrix by Hunter Seamons using Final Cut Pro (FLAC>AIFF>Final Cut>WAV>FLAC)  
  Archive
Source Information - Download Text | Download Zip
Grateful Dead
Boston Garden
Boston, MA
September 26, 1991



*Matrix*

----------------------------------------------------
SBD:

Recording Info:
SBD -> Dat -> Cassette Master (TDK SA100)

Transfer Info:
Cassette Master (Sony TC-WE475) -> Apogee MiniMe ->
Samplitude Professional v7.02 -> FLAC
(2 Discs Audio / 2 Discs FLAC)

All Transfers and Mastering By Charlie Miller
[email protected]
July 22, 2006

Notes:
-- Last 2 seconds of Cumberland supplied by Jeff Fishman's source
-- Most of d2t01 supplied by Jeff Fishman's source

----------------------------------------------------
AUD:

Sennheiser ME-80's>Technics SV-MD1

DAT Master>Tascam DA-30MKII>Sound Devices 702>Wavelab 5(Fades, Sample Rate Conversion)>CDWAV>FLAC

Recorded, Transferred & Uploaded By Keith Litzenberger

---------------------------------------------------
Thank you to Charlie Miller for the SBD transfer,
and to Keith Litzenberger for recording the show and providing the AUD transfer.

Matrix by Hunter Seamons using Final Cut Pro (FLAC>AIFF>Final Cut>WAV>FLAC)
October 11, 2008


Set I
-----
d1t01 - Tuning
d1t02 - Jack Straw ->
d1t03 - Cold Rain and Snow
d1t04 - Wang Dang Doodle
d1t05 - Candyman
d1t06 - Mexicali Blues ->
d1t07 - Cumberland Blues
d1t08 - Picasso Moon ->
d1t09 - Box of Rain

Set II
-----
d2t01 - Tuning
d2t02 - Dark Star ->
d2t03 - Saint of Circumstance ->
d2t04 - Eyes of the World ->
d2t05 - Drums ->
d3t01 - Space ->
d3t02 - The Other One ->
d3t03 - Dark Star ->
d3t04 - Attics of My Life ->
d3t05 - Good Lovin'

Encores
------
d3t06 - Brokedown Palace ->
d3t07 - We Bid You Goodnight
  

Notes:

1) SBD source was about 1.5% fast.

2) Cut in the SBD between Cumberland and Moon, before encores, and for the first two minutes of the recording. Brief cut in the SBD near the end of Saint. Sizable Cuts in SBD and AUD during Space - these cuts did not overlap, so the whole song is now present. Brief dropout in the AUD mid Attics.

3) Because of just plain weirdness in the Tuning track of the SBD in set 2, which was mostly the Fishman patch, I opted to only have the AUD play.

4) I noticed some faint clicks/static in the SBD here and there.


    length     expanded size    cdr  WAVE problems  fmt   ratio  filename
     7:11.12       76056668 B   ---   --   ---xx  gd91-09-26d1t01.flac
     5:48.13       61417820 B   ---   --   ---xx  gd91-09-26d1t02.flac
     9:24.02       99494348 B   ---   --   ---xx  gd91-09-26d1t03.flac
     9:44.67      103175228 B   ---   --   ---xx  gd91-09-26d1t04.flac
    10:19.69      109353932 B   ---   --   ---xx  gd91-09-26d1t05.flac
     5:37.37       59533868 B   ---   --   ---xx  gd91-09-26d1t06.flac
     8:10.72       86605388 B   ---   --   ---xx  gd91-09-26d1t07.flac
     6:42.25       70971644 B   ---   --   ---xx  gd91-09-26d1t08.flac
     5:09.31       54580556 B   ---   --   ---xx  gd91-09-26d1t09.flac
     3:13.24       34101692 B   ---   --   ---xx  gd91-09-26d2t01.flac
    13:19.02      140948348 B   ---   --   ---xx  gd91-09-26d2t02.flac
     6:43.36       71173916 B   ---   --   ---xx  gd91-09-26d2t03.flac
    12:43.27      134656748 B   ---   --   ---xx  gd91-09-26d2t04.flac
     9:12.29       97441052 B   ---   --   ---xx  gd91-09-26d2t05.flac
    11:09.28      118077500 B   ---   --   ---xx  gd91-09-26d3t01.flac
     7:31.66       79711676 B   ---   --   ---xx  gd91-09-26d3t02.flac
     6:18.38       66768620 B   ---   --   ---xx  gd91-09-26d3t03.flac
     5:44.24       60738092 B   ---   --   ---xx  gd91-09-26d3t04.flac
     8:48.69       93301532 B   ---   --   ---xx  gd91-09-26d3t05.flac
     5:19.27       56335148 B   ---   --   ---xx  gd91-09-26d3t06.flac
     3:45.18       39732380 B   ---   --   ---xx  gd91-09-26d3t07.flac
   161:57.41     1714176156 B                            0.5317  (21 files)
Show Checksums
flac-md5
c4c63f6f67fb1a5ce1c7a22a84035bb2 *gd91-09-26d1t01.flac
c33948dce63aa00510ced2d613286ced *gd91-09-26d1t02.flac
232af0db736846b979c222053883983b *gd91-09-26d1t03.flac
533a9bf351b5ee3ae251710acd0a69f4 *gd91-09-26d1t04.flac
c29ef58b24deef2a9159da1bf53db39e *gd91-09-26d1t05.flac
b0b19e6573dfc78ae0049a3154a5f6c6 *gd91-09-26d1t06.flac
410dcdaf8a5e5deb7c6f6df1193a966c *gd91-09-26d1t07.flac
c768bcc3a561bfc9e9d6c1b3df771f0b *gd91-09-26d1t08.flac
8336be0ac21dc4109f8e0826630e6ebe *gd91-09-26d1t09.flac
97635aa1d04a062ccbc1db203b22484a *gd91-09-26d2t01.flac
6a9a3799fb497ccd6f19fad76512a655 *gd91-09-26d2t02.flac
424dbc247316fd198f4be460d9bfb644 *gd91-09-26d2t03.flac
f2ed2e954da011240f08151e29078cd7 *gd91-09-26d2t04.flac
a7d911d625f9a01d721dc8e14a3f3c60 *gd91-09-26d2t05.flac
75f74406d26dffd88693c113177569b0 *gd91-09-26d3t01.flac
5413abc499de01c2e0ffeea3905291ed *gd91-09-26d3t02.flac
7c49c8ac958b63337679400652f9982b *gd91-09-26d3t03.flac
7dc4c991632f04759a243f7570f62479 *gd91-09-26d3t04.flac
2b2692704e34932d5807d48e04bd20e3 *gd91-09-26d3t05.flac
36ac01933162709ed758ad093504c4ff *gd91-09-26d3t06.flac
41259566d97f14e1bef051fcdab18475 *gd91-09-26d3t07.flac
ffp
gd91-09-26d1t01.flac:6a62971b855b3da14940ed0e2871d689
gd91-09-26d1t02.flac:7eca1a0a7d1ecf75ab8d2b7671eb0d30
gd91-09-26d1t03.flac:888a9bc9afc6f890ea327d927dd20ef1
gd91-09-26d1t04.flac:e5ed27a88cc9aacdd5511f7077c75c63
gd91-09-26d1t05.flac:f4755f378bd07b005fd46e03e85db1ec
gd91-09-26d1t06.flac:a51df2dbcc9752ed11f64f92b8f9b8e4
gd91-09-26d1t07.flac:4e4265c3cc7620792c82e081bf107951
gd91-09-26d1t08.flac:e3ebf5a38deb6d5044869016fe9c080a
gd91-09-26d1t09.flac:6a3de5248afae4b5d868c171b2a7bfbf
gd91-09-26d2t01.flac:0314fcca3a7c52f019cce3c47e399363
gd91-09-26d2t02.flac:b62ef7cf5653f2f8c5caca2b93f6d20c
gd91-09-26d2t03.flac:c5eb0602eedec812ecfdbe722271b0e7
gd91-09-26d2t04.flac:8c6f77248103f63d29023146a0e6c38c
gd91-09-26d2t05.flac:2691ce38a4adc5489613affd7d643298
gd91-09-26d3t01.flac:510759e117919d0f2b67e79906137a9c
gd91-09-26d3t02.flac:019528618bf256339c6bef3ea56a2f80
gd91-09-26d3t03.flac:fee1fe44502df61049c0c36d7bd17699
gd91-09-26d3t04.flac:6d2b7da442aecbde9c5af372985fef9b
gd91-09-26d3t05.flac:c876553153f6178ce921a400d0b8b1b9
gd91-09-26d3t06.flac:3d34e8f56680289d519854b13b8982e4
gd91-09-26d3t07.flac:58599bf08721c3529cca037d44d89244

Comments
Add Comment
Other Sources (comments)
SBD> MC> DAT> CDA; high... (1) SBD(1)>DAT>CD>EAC>CDWAVE>MK... (6) flac16/48; Set 2... (0) flac16; Set 2 only -... (1) flac16; Recording... (0) flac16; AUD Source:... (0) flac16/48; AUD... (0) flac16; Sennheiser... (0) flac16; Recording... (1) flac16; Lineage:... (0) flac16; Matrix of... (0) DTS Audio 5.1; Mix... (0) flac24; Master... (0) flac16; Master... (0) flac24; Master... (0) flac16; Master... (0) flac16; DSBD Masters... (0) flac16/48kHz;... (0)
Date User Comment