Browse Collections Artists Sources   Search Dates

Add Show    List Management    Help


Grateful Dead 03/10/81
Madison Square Garden, New York, NY
Comments Add Comment    Source Collectors    Add to Collection    Add to Want List    History
Source # 95275 Other Sources
Entered by dr.unclear
Checksums flac-md5 , ffp
Disc Counts 2 / 3
Media Size
Date Circulated
Date Added
10/14/2008
10/14/2008
Source Summary flac16; Recording Info: (FOB) Nakamichi 700 -> Cassette Master (Sony D5/Maxell UDXL-IIS); Transfer Info: Cassette Master (Nakamichi DR-1) -> Sound Devices 744T (24bit/96k) -> Samplitude Professional v10.1 -> FLAC/16; Recorded By Steve Rolfe; All Transfers and Mastering By Charlie Miller 
  Archive
Source Information - Download Text | Download Zip
Grateful Dead - March 10, 1981
Madison Square Garden - New York, NY

Recording Info:
(FOB) Nakamichi 700 -> Cassette Master (Sony D5/Maxell UDXL-IIS)

Transfer Info:
Cassette Master (Nakamichi DR-1) -> Sound Devices 744T (24bit/96k) ->
Samplitude Professional v10.1 -> FLAC/16
(3 Discs Audio / 2 Discs FLAC)

All Transfers and Mastering By Charlie Miller
[email protected]
October 13, 2008

Patch Info:
(FOB) Nakamichi 700 -> Cassette Master (shnid=7630) supplies:
Little Red Rooster (0:00 - 0:06)
Saint Of Circumstance (7:06 - 7:15)
Drums (9:31 - 9:42)

Notes:
-- Set 2 is seamless
-- Smokestack Lightning jam after Truckin'
-- Thanks to Steve Rolfe for lending me his masters

Set 1:
d1t01 - Tuning
d1t02 - Mississippi Half-Step Uptown Toodeloo ->
d1t03 - Franklin's Tower ->
d1t04 - Me And My Uncle
d1t05 - It Must Have Been The Roses ->
d1t06 - Little Red Rooster
d1t07 - Don't Ease Me In
d1t08 - Lazy Lightnin' ->
d1t09 - Supplication
d1t10 - Brown Eyed Women ->
d1t11 - Looks Like Rain ->
d1t12 - Deal

Set 2:
d2t01 - Tuning
d2t02 - Scarlet Begonias ->
d2t03 - Fire On The Mountain ->
d2t04 - Lost Sailor ->
d2t05 - Saint Of Circumstance ->
d2t06 - Drums ->
d3t01 - Space ->
d3t02 - The Wheel ->
d3t03 - China Doll ->
d3t04 - Truckin' ->
d3t05 - Sugar Magnolia

Encore:
d3t06 - (I Can't Get No) Satisfaction ->
d3t07 - Brokedown Palace


SHNTOOL OUTPUT:
    length     expanded size   cdr  WAVE problems filename
     1:04.36       11374316    ---   --   -----   gd81-03-10d1t01.wav
    11:34.00      122421644    ---   --   -----   gd81-03-10d1t02.wav
    10:59.26      116308796    ---   --   -----   gd81-03-10d1t03.wav
     5:37.60       59587964    ---   --   -----   gd81-03-10d1t04.wav
     6:19.37       66942668    ---   --   -----   gd81-03-10d1t05.wav
     7:10.02       75856748    ---   --   -----   gd81-03-10d1t06.wav
     3:56.16       41668076    ---   --   -----   gd81-03-10d1t07.wav
     3:21.73       35628140    ---   --   -----   gd81-03-10d1t08.wav
     7:24.35       78403964    ---   --   -----   gd81-03-10d1t09.wav
     5:21.46       56732636    ---   --   -----   gd81-03-10d1t10.wav
     9:16.24       98134892    ---   --   -----   gd81-03-10d1t11.wav
     7:15.54       76861052    ---   --   -----   gd81-03-10d1t12.wav
     0:57.56       10186556    ---   --   -----   gd81-03-10d2t01.wav
    11:14.49      119008892    ---   --   -----   gd81-03-10d2t02.wav
    15:26.01      163348796    ---   --   -----   gd81-03-10d2t03.wav
     6:10.32       65343308    ---   --   -----   gd81-03-10d2t04.wav
     9:39.16      102173276    ---   --   -----   gd81-03-10d2t05.wav
    10:37.44      112470332    ---   --   -----   gd81-03-10d2t06.wav
     2:28.29       26175452    ---   --   -----   gd81-03-10d3t01.wav
     5:53.66       62424476    ---   --   -----   gd81-03-10d3t02.wav
     7:10.33       75929660    ---   --   -----   gd81-03-10d3t03.wav
     8:35.41       90942476    ---   --   -----   gd81-03-10d3t04.wav
     9:23.06       99327356    ---   --   -----   gd81-03-10d3t05.wav
     6:16.48       66439340    ---   --   -----   gd81-03-10d3t06.wav
     6:02.63       64005020    ---   --   -----   gd81-03-10d3t07.wav
   179:17.68     1897695836 B                     (totals for 25 files)
Show Checksums
flac-md5
d78a00f966a19305e499d05e46839b3d *gd81-03-10d1t01.flac
8ac8ebcc1c8d3d8cc71793fc1f2b8f44 *gd81-03-10d1t02.flac
c8aff45c87c7a1de8e265c24bc5473b4 *gd81-03-10d1t03.flac
4d60f7d7164ce964d46f534de9b10a54 *gd81-03-10d1t04.flac
1cd1c6f9cbfd274cafc867bb72d37716 *gd81-03-10d1t05.flac
47c1fe8ede5a01e6b83f6edffb644707 *gd81-03-10d1t06.flac
eee77d1a7fc24ab04eb45fa2609a5706 *gd81-03-10d1t07.flac
18eda35d27a470f6ed3c7c5828fb3b81 *gd81-03-10d1t08.flac
fb821a461e7a9089218ddd5720959864 *gd81-03-10d1t09.flac
e59915059893a1977d89f4e4f0cc328a *gd81-03-10d1t10.flac
b24e469857bb86b2e38cc599994ecebb *gd81-03-10d1t11.flac
d36bea506607148a7551415ad0a0c97c *gd81-03-10d1t12.flac
43905c9e9264de1d41c3240d548d6749 *gd81-03-10d2t01.flac
1ff12b4be3c1ec3076e0be00abcf933b *gd81-03-10d2t02.flac
a630be322e6ad7fcc72403f492de53d6 *gd81-03-10d2t03.flac
b75d958b9080d75f4f8eef7ccc3cc8aa *gd81-03-10d2t04.flac
a07cedd8ca6004de6330a308c9c0f012 *gd81-03-10d2t05.flac
4559a516fd8d422292e0c85fb0ed74ed *gd81-03-10d2t06.flac
4d0d89e9d3cdf09b855b39fb64741355 *gd81-03-10d3t01.flac
f5251e7c819b9cb4975c097c20026b02 *gd81-03-10d3t02.flac
73538adf94932df935bae691120a182c *gd81-03-10d3t03.flac
a04534a7ae31f0208895fd5d7874302b *gd81-03-10d3t04.flac
1d06b178ba058d884d355ca13290f96b *gd81-03-10d3t05.flac
4a5f3e0d7792652557a6b14568ed0d35 *gd81-03-10d3t06.flac
152c287cbb30929ca65fd1b1e7b16c56 *gd81-03-10d3t07.flac
ffp
gd81-03-10d1t01.flac:605d3c77505ef8a9ff7d3539d01710e8
gd81-03-10d1t02.flac:d546b879fef5d40d94b2b22d9ef5a03e
gd81-03-10d1t03.flac:15cc1b83af9a5a768a40d92962d3aa79
gd81-03-10d1t04.flac:e4babe4feb86723efc169880a2d60104
gd81-03-10d1t05.flac:8c01dcbaa65e08e68200659b80de9e70
gd81-03-10d1t06.flac:048b860dd07d92abe41b956e1f11e5ed
gd81-03-10d1t07.flac:52ef12f27a567f358a0414449df4deb6
gd81-03-10d1t08.flac:c606297ac981c73dbf03e772937ece68
gd81-03-10d1t09.flac:6b4674cf12ff5622cb43eff94aad8fe6
gd81-03-10d1t10.flac:2b693040d6f4025c6a56c7237894c64f
gd81-03-10d1t11.flac:ad2c24095aaf22dd9251d8df02160caf
gd81-03-10d1t12.flac:c00f3fd2499635d82117b0f141042fca
gd81-03-10d2t01.flac:873c04bf6581a9b789184fe8692db13f
gd81-03-10d2t02.flac:dce31fa4e75ebf39298bcd6dd9e627cc
gd81-03-10d2t03.flac:f002824ed7c9c3c7a545f5a1f2d529d4
gd81-03-10d2t04.flac:d94b6a2191bf534a7cd06bf116f3cd11
gd81-03-10d2t05.flac:3dd66e08ca929adbda6a8d5bf174f99e
gd81-03-10d2t06.flac:23a0a2a9438c343b231a7b35b3ab2d23
gd81-03-10d3t01.flac:d7ed2e273a123a68070d4b8ac151b259
gd81-03-10d3t02.flac:7eda399bb264e2b32ccaaa3540992ed3
gd81-03-10d3t03.flac:8761258ae1eaf825ab0c606ef6d37102
gd81-03-10d3t04.flac:20f0971ee2237861c6b890b32cda8a5d
gd81-03-10d3t05.flac:82c8e2d9e89ae07b0be04904154b2019
gd81-03-10d3t06.flac:3d1590b0f8e41247998991bff6cccfe9
gd81-03-10d3t07.flac:77866a4537dd876589e35d6139a3c62d

Comments
Add Comment
Other Sources (comments)
Recording by Barry... (0) flac16; Recording by... (2) flac24/96; Recording... (0) flac16; Set 2 only,... (1) flac24; Recording... (0) flac16; Recording... (0) flac16; Recording by... (0) flac24; Recording by... (0) flac16; Matrix by... (0)
Date User Comment