Browse Collections Artists Sources   Search Dates

Add Show    List Management    Help


Grateful Dead 03/10/81
Madison Square Garden, New York, NY
Comments Add Comment    Source Collectors    Add to Collection    Add to Want List    History
Source # 95276 Other Sources
Entered by dr.unclear
Checksums flac-md5 , ffp
Disc Counts 0 / 0
Media Size
Date Circulated
Date Added
10/14/2008
10/14/2008
Source Summary flac24; Recording Info: (FOB) Nakamichi 700 -> Cassette Master (Sony D5/Maxell UDXL-IIS); Transfer Info: Cassette Master (Nakamichi DR-1) -> Sound Devices 744T (24bit/96k) -> Samplitude Professional v10.1 -> FLAC/24; Recorded By Steve Rolfe; All Transfers and Mastering By Charlie Miller 
  Archive
Source Information - Download Text | Download Zip
Grateful Dead - March 10, 1981
Madison Square Garden - New York, NY

Recording Info:
(FOB) Nakamichi 700 -> Cassette Master (Sony D5/Maxell UDXL-IIS)

Transfer Info:
Cassette Master (Nakamichi DR-1) -> Sound Devices 744T (24bit/96k) ->
Samplitude Professional v10.1 -> FLAC/24
(1 DVD FLAC)

All Transfers and Mastering By Charlie Miller
[email protected]
October 13, 2008

Patch Info:
(FOB) Nakamichi 700 -> Cassette Master (shnid=7630) supplies:
Little Red Rooster (0:00 - 0:06)
Saint Of Circumstance (7:06 - 7:15)
Drums (9:31 - 9:42)

Notes:
-- Smokestack Lightning jam after Truckin'
-- Thanks to Steve Rolfe for lending me his masters

Set 1:
s1t01 - Tuning
s1t02 - Mississippi Half-Step Uptown Toodeloo ->
s1t03 - Franklin's Tower ->
s1t04 - Me And My Uncle
s1t05 - It Must Have Been The Roses ->
s1t06 - Little Red Rooster
s1t07 - Don't Ease Me In
s1t08 - Lazy Lightnin' ->
s1t09 - Supplication
s1t10 - Brown Eyed Women ->
s1t11 - Looks Like Rain ->
s1t12 - Deal

Set 2:
s2t01 - Tuning
s2t02 - Scarlet Begonias ->
s2t03 - Fire On The Mountain ->
s2t04 - Lost Sailor ->
s2t05 - Saint Of Circumstance ->
s2t06 - Drums ->
s2t07 - Space ->
s2t08 - The Wheel ->
s2t09 - China Doll ->
s2t10 - Truckin' ->
s2t11 - Sugar Magnolia

Encore:
s2t12 - (I Can't Get No) Satisfaction ->
s2t13 - Brokedown Palace


SHNTOOL OUTPUT:
    length     expanded size   cdr  WAVE problems filename
     1:04.493      37148204    cxx   --   -----   gd81-03-10s1t01.wav
    11:34.000     399744044    cxx   --   -----   gd81-03-10s1t02.wav
    10:59.347     379783724    cxx   --   -----   gd81-03-10s1t03.wav
     5:37.800     194572844    cxx   --   -----   gd81-03-10s1t04.wav
     6:19.493     218588204    cxx   --   -----   gd81-03-10s1t05.wav
     7:10.027     247695404    cxx   --   -----   gd81-03-10s1t06.wav
     3:56.213     136058924    cxx   --   -----   gd81-03-10s1t07.wav
     3:21.973     116336684    cxx   --   -----   gd81-03-10s1t08.wav
     7:24.467     256012844    cxx   --   -----   gd81-03-10s1t09.wav
     5:21.613     185249324    cxx   --   -----   gd81-03-10s1t10.wav
     9:16.320     320440364    cxx   --   -----   gd81-03-10s1t11.wav
     7:15.715     250971896    cxx   --   -----   gd81-03-10s1t12.wav
     0:57.747      33262124    cxx   --   -----   gd81-03-10s2t01.wav
    11:14.653     388600364    cxx   --   -----   gd81-03-10s2t02.wav
    15:26.013     533383724    cxx   --   -----   gd81-03-10s2t03.wav
     6:10.427     213365804    cxx   --   -----   gd81-03-10s2t04.wav
     9:39.213     333626924    cxx   --   -----   gd81-03-10s2t05.wav
    10:37.587     367249964    cxx   --   -----   gd81-03-10s2t06.wav
     2:28.387      85470764    cxx   --   -----   gd81-03-10s2t07.wav
     5:53.880     203834924    cxx   --   -----   gd81-03-10s2t08.wav
     7:10.440     247933484    cxx   --   -----   gd81-03-10s2t09.wav
     8:35.547     296954924    cxx   --   -----   gd81-03-10s2t10.wav
     9:23.080     324334124    cxx   --   -----   gd81-03-10s2t11.wav
     6:16.640     216944684    cxx   --   -----   gd81-03-10s2t12.wav
     6:02.820     208984520    cxx   --   -----   gd81-03-10s2t13.wav
   179:17.895    6196548788 B                     (totals for 25 files)
Show Checksums
flac-md5
72490a72a3387eef6a831e449304c883 *gd81-03-10s1t01.flac
01a4f5c3d68bfe089c33c7c5e5cb2450 *gd81-03-10s1t02.flac
37cc4727b14253060d4a0135b1385cca *gd81-03-10s1t03.flac
e8da173dbb9de0178dc7c0f2e9f3308e *gd81-03-10s1t04.flac
de002cf4b91b6d97dab4b37a147c1868 *gd81-03-10s1t05.flac
ed3605c81ab51cd46e471affb1b899ae *gd81-03-10s1t06.flac
a4ec90160b10c3240d6ba7b5b63d3b9c *gd81-03-10s1t07.flac
6c595278e950a1b60cbb091d4274c3dd *gd81-03-10s1t08.flac
a4098ef632b3efb7d566374345e5c8d2 *gd81-03-10s1t09.flac
5032a0c276c698d5db0dd3a2f9e65da7 *gd81-03-10s1t10.flac
ad6cb367714b1e186d27b900de25959c *gd81-03-10s1t11.flac
aeb36d69f6c542bbea9ad6547b56e594 *gd81-03-10s1t12.flac
38a2f4381cb7f0775817769875f95d5c *gd81-03-10s2t01.flac
17309c2a38c9d1d8dfa30393ca09aea4 *gd81-03-10s2t02.flac
6606f26e6dae6c52947fd16e57dd11ff *gd81-03-10s2t03.flac
25ec6231628bc27ed0b59dda631f5f65 *gd81-03-10s2t04.flac
c41fbde5328b95dd22503d55de42416c *gd81-03-10s2t05.flac
fbc4caa3f356f02ccff33efc360f99c0 *gd81-03-10s2t06.flac
83223400d946095b9b05da61fee73027 *gd81-03-10s2t07.flac
d5237ed1a86071f41143446e48daf532 *gd81-03-10s2t08.flac
c7a4c8be531a53d232ebccc790fd25a4 *gd81-03-10s2t09.flac
691e34d6ee80992e2c6348ede798261f *gd81-03-10s2t10.flac
38fb3de2d3d83fea998322305f1cd11a *gd81-03-10s2t11.flac
e6a70d7f717d5328edd0a866175779c3 *gd81-03-10s2t12.flac
a0b85236e9e443521f98d064f4925b31 *gd81-03-10s2t13.flac
ffp
gd81-03-10s1t01.flac:2c9104be44e5a6b43dac4b4dfbe2a2cd
gd81-03-10s1t02.flac:cdd9f7eb901834ee970ae42bcf2e66ba
gd81-03-10s1t03.flac:26711147bb8160f2191587bce7c6d1b8
gd81-03-10s1t04.flac:5a23e78340bf6665e1cd7b4c35a092e8
gd81-03-10s1t05.flac:117f8a5a7225e1f0d1dd45a746b0a3b3
gd81-03-10s1t06.flac:e2557a6141a7c252e593678274bbb0f4
gd81-03-10s1t07.flac:246cfb75dde405ad5c6bfc142350a625
gd81-03-10s1t08.flac:1a9d4095ae41fd99e938269688fbf324
gd81-03-10s1t09.flac:427baa551bdc193dfe453b8975bfe3b9
gd81-03-10s1t10.flac:0c2993c2b043c1faa9608d33729d2efb
gd81-03-10s1t11.flac:f7aab9867a88939b3b4850a6e0386373
gd81-03-10s1t12.flac:fb4494bd9d74bb6cb39b94d165a9723f
gd81-03-10s2t01.flac:3382bd2605b99ddbeaee1bc901c4537e
gd81-03-10s2t02.flac:7d95d684ebbc72146ad899e92666ebf7
gd81-03-10s2t03.flac:99914cef8d3eea74537d53a24520d36a
gd81-03-10s2t04.flac:7dfd78335ada21b46ba20cd7d4cf0e6e
gd81-03-10s2t05.flac:a0f34c252292c3c0a8b41f12bc9492b8
gd81-03-10s2t06.flac:7780735221927b327067618a961e6812
gd81-03-10s2t07.flac:6118ca28a7122d6db8e5e22f4d93352b
gd81-03-10s2t08.flac:581a667b0bfa57c4514f5fff70dba5f8
gd81-03-10s2t09.flac:be7f2da67d65f0230562f630457c68a6
gd81-03-10s2t10.flac:4ab8915af3b75c312642c3855f66ad83
gd81-03-10s2t11.flac:044c96dcc988cf6d88ad9e2207b0c3b7
gd81-03-10s2t12.flac:f0ce2bf152f7656bac9f98a6ae190cd3
gd81-03-10s2t13.flac:6b6c19e50b18042c3cbb1c3ef4c97a52

Comments
Add Comment
Other Sources (comments)
Recording by Barry... (0) flac16; Recording by... (2) flac24/96; Recording... (0) flac16; Set 2 only,... (1) flac16; Recording... (0) flac16; Recording... (0) flac16; Recording by... (0) flac24; Recording by... (0) flac16; Matrix by... (0)
Date User Comment