Browse Collections Artists Sources   Search Dates

Add Show    List Management    Help


Grateful Dead 03/14/81
Hartford Civic Center, Hartford, CT
Comments Add Comment    Source Collectors    Add to Collection    Add to Want List    History
Source # 95287 Other Sources
Entered by dr.unclear
Checksums flac-md5 , ffp
Disc Counts 2 / 3
Media Size
Date Circulated
Date Added
10/15/2008
10/14/2008
Source Summary flac16; Recording Info: (FOB) Nakamichi 700 -> Cassette Master (Sony D5/Maxell UDXL-IIS); Transfer Info: Cassette Master (Nakamichi DR-1) -> Sound Devices 744T (24bit/96k) -> Samplitude Professional v10.1 -> FLAC/16; Recorded By Steve Rolfe; All Transfers and Mastering By Charlie Miller 
  Archive
Source Information - Download Text | Download Zip
Grateful Dead - March 14, 1981
Civic Center - Hartford, CT

Recording Info:
(FOB) Nakamichi 700 -> Cassette Master (Sony D5/Maxell UDXL-IIS)

Transfer Info:
Cassette Master (Nakamichi DR-1) -> Sound Devices 744T (24bit/96k) ->
Samplitude Professional v10.1 -> FLAC/16
(3 Discs Audio / 2 Discs FLAC)

All Transfers and Mastering By Charlie Miller
[email protected]
October 13, 2008

Patch Info:
(FOB) Nakamichi 700 -> Cassette Master (shnid=84826) supplies:
Althea (3:57 - 4:01)

(FOB) Unknown Mics -> Cassette Master -> CD (shnid=7217) supplies:
Drums (12:55 - 13:04)

Notes:
-- Set 2 is seamless
-- Thanks to Steve Rolfe for lending me his masters

Set 1:
d1t01 - Tuning
d1t02 - Feel Like A Stranger
d1t03 - Sugaree
d1t04 - Me And My Uncle ->
d1t05 - Big River
d1t06 - Peggy-O
d1t07 - C C Rider
d1t08 - Althea
d1t09 - Passenger
d1t10 - China Cat Sunflower ->
d1t11 - I Know You Rider

Set 2:
d2t01 - Tuning
d2t02 - Alabama Getaway ->
d2t03 - Greatest Story Ever Told
d2t04 - Ship Of Fools
d2t05 - Lost Sailor ->
d2t06 - Saint Of Circumstance ->
d2t07 - Drums ->
d3t01 - Space ->
d3t02 - The Other One ->
d3t03 - Stella Blue ->
d3t04 - I Need A Miracle ->
d3t05 - Bertha ->
d3t06 - Good Lovin'

Encore:
d3t07 - One More Saturday Night


SHNTOOL OUTPUT:
    length     expanded size   cdr  WAVE problems filename
     2:06.45       22332284    ---   --   -----   gd81-03-14d1t01.wav
     8:35.64       90996572    ---   --   -----   gd81-03-14d1t02.wav
    12:39.43      133988780    ---   --   -----   gd81-03-14d1t03.wav
     2:56.49       31161692    ---   --   -----   gd81-03-14d1t04.wav
     6:02.45       63962684    ---   --   -----   gd81-03-14d1t05.wav
     7:45.47       82136588    ---   --   -----   gd81-03-14d1t06.wav
     9:17.46       98363036    ---   --   -----   gd81-03-14d1t07.wav
     9:43.35      102923564    ---   --   -----   gd81-03-14d1t08.wav
     5:51.47       62026988    ---   --   -----   gd81-03-14d1t09.wav
     5:36.48       59383340    ---   --   -----   gd81-03-14d1t10.wav
     6:34.59       69640412    ---   --   -----   gd81-03-14d1t11.wav
     1:55.09       20307212    ---   --   -----   gd81-03-14d2t01.wav
     5:12.04       55046252    ---   --   -----   gd81-03-14d2t02.wav
     4:51.35       51414764    ---   --   -----   gd81-03-14d2t03.wav
     9:15.56       98033756    ---   --   -----   gd81-03-14d2t04.wav
     6:41.24       70792892    ---   --   -----   gd81-03-14d2t05.wav
     7:02.13       74471420    ---   --   -----   gd81-03-14d2t06.wav
    13:14.16      140099276    ---   --   -----   gd81-03-14d2t07.wav
     0:25.68        4569980    ---   --   -----   gd81-03-14d3t01.wav
     7:44.31       81922556    ---   --   -----   gd81-03-14d3t02.wav
    10:06.57      107032508    ---   --   -----   gd81-03-14d3t03.wav
     3:26.41       36434876    ---   --   -----   gd81-03-14d3t04.wav
     6:03.01       64035596    ---   --   -----   gd81-03-14d3t05.wav
     8:16.20       87541484    ---   --   -----   gd81-03-14d3t06.wav
     5:09.00       54507644    ---   --   -----   gd81-03-14d3t07.wav
   166:35.03     1763126156 B                     (totals for 25 files)
Show Checksums
flac-md5
041043ce5981bdc331e2bbab318bc7b2 *gd81-03-14d1t01.flac
c4600da8a3bee65407f49959539bd6dd *gd81-03-14d1t02.flac
214e211b0a3048462ffb559abaafd57b *gd81-03-14d1t03.flac
fdf726e4151873a4711b308e939437a2 *gd81-03-14d1t04.flac
ecd7ac103dde9807ef30d33325fbe582 *gd81-03-14d1t05.flac
0aa0027021588c11ab20366581b13eea *gd81-03-14d1t06.flac
5f1dd9228c7d0b7e8746226dbd83e427 *gd81-03-14d1t07.flac
372adbba1424515a94942af01a1a5ae7 *gd81-03-14d1t08.flac
50616fde91096467f3776795c9d004cb *gd81-03-14d1t09.flac
53a965407f90087dbed622a0ba0d05d7 *gd81-03-14d1t10.flac
bef72278cd2a1eb8077e2d3d79229050 *gd81-03-14d1t11.flac
ed6d1ab496ce35302134ac84ec60c7ce *gd81-03-14d2t01.flac
70b99dc44fa8ecf28561e78a478824a2 *gd81-03-14d2t02.flac
0caba21fb0369e52264e0bc96986b394 *gd81-03-14d2t03.flac
d94cc45225a8dacb84ee935776270e1c *gd81-03-14d2t04.flac
788cd743497f53a2bdf34f6e69b17239 *gd81-03-14d2t05.flac
f39852e65c128959c0967d5ef83f9668 *gd81-03-14d2t06.flac
5664371b4fdad6a843f4f1d288a56216 *gd81-03-14d2t07.flac
0cfb3d0600b1b8d64407b6b38e8869ce *gd81-03-14d3t01.flac
ad9705ea69b486fdbc1d5c5136356e24 *gd81-03-14d3t02.flac
3c4156ed5fb558243ea6f52d3020e4db *gd81-03-14d3t03.flac
7a9c63fd3db471e0b394ab1c3fe96c47 *gd81-03-14d3t04.flac
e59274d48f3f36dc8bc2ad033f12bc9f *gd81-03-14d3t05.flac
ff6f61425612e6a91fd62388a99ccc6f *gd81-03-14d3t06.flac
da4e6edcbc30f3bbff74888139137c03 *gd81-03-14d3t07.flac
ffp
gd81-03-14d1t01.flac:3b3a7bab6cd0ce5f9baf27183537a52f
gd81-03-14d1t02.flac:f8ebffb10d6abf2bb7be82724df81040
gd81-03-14d1t03.flac:e7111f8993352418d106b1ba40687d67
gd81-03-14d1t04.flac:23a95716128c3b922d83145853cefdda
gd81-03-14d1t05.flac:3631678cfe7811cc10c0e1b77cd7f0ca
gd81-03-14d1t06.flac:3d3804ccf78f9f316a9817b704a324df
gd81-03-14d1t07.flac:667cdca2f95e5c3d41d2980c58a7e639
gd81-03-14d1t08.flac:b5e6b9597f12e8ae8855c7d8914c9d70
gd81-03-14d1t09.flac:e867bacd11a5e0e4a4c3614627738022
gd81-03-14d1t10.flac:15717b05dbb3be7dc4d4e97cb34876e9
gd81-03-14d1t11.flac:f317570df3a12d95e806c770a04a3e86
gd81-03-14d2t01.flac:ff705c26ea79bf08a28142a7716818f5
gd81-03-14d2t02.flac:44f928d31e5a984fa12ff247372d8a24
gd81-03-14d2t03.flac:5f9b91876885ad4f4f3ac544f55980a8
gd81-03-14d2t04.flac:712cc4893b3a42059c986b97e7a7a43b
gd81-03-14d2t05.flac:cae42efecf23c400b8c3e2b9e1a43b10
gd81-03-14d2t06.flac:f2979198b27893a135ed0d4dee0a80f5
gd81-03-14d2t07.flac:7852617274746b6f91280c478b6f9e09
gd81-03-14d3t01.flac:a0844025d6ea3a67904e06aa997aad5e
gd81-03-14d3t02.flac:fca11fcfd49d125f0929dfd156bd944d
gd81-03-14d3t03.flac:0f26d8232b3f5a87bc607281016cc058
gd81-03-14d3t04.flac:414795b0b2e1cdf4cdf72c801559ad12
gd81-03-14d3t05.flac:ac1d3de6007e25ca00f9b7ccaefa2aa0
gd81-03-14d3t06.flac:c00bdfcc545295dfa89beb355e0d5d4d
gd81-03-14d3t07.flac:f60d47e80fd5b19149ff35b148411d93

Comments
Add Comment
Other Sources (comments)
Aud (?)-> CD-> EAC-> SHN;... (3) flac16; Recorded by... (0) flac16; Recording by... (0) flac24; Recording... (0) flac16; AUD: 3x... (1) flac16; Recording... (0) flac24; Cassette... (0) flac16; Source Info:... (0) flac24; Source Info:... (0)
Date User Comment