Browse Collections Artists Sources   Search Dates

Add Show    List Management    Help


Grateful Dead 03/14/81
Hartford Civic Center, Hartford, CT
Comments Add Comment    Source Collectors    Add to Collection    Add to Want List    History
Source # 95288 Other Sources
Entered by dr.unclear
Checksums ffp , flac-md5
Disc Counts 0 / 0
Media Size
Date Circulated
Date Added
10/15/2008
10/14/2008
Source Summary flac24; Recording Info: (FOB) Nakamichi 700 -> Cassette Master (Sony D5/Maxell UDXL-IIS); Transfer Info: Cassette Master (Nakamichi DR-1) -> Sound Devices 744T (24bit/96k) -> Samplitude Professional v10.1 -> FLAC/24; Recorded By Steve Rolfe; All Transfers and Mastering By Charlie Miller 
  Archive
Source Information - Download Text | Download Zip
Grateful Dead - March 14, 1981
Civic Center - Hartford, CT

Recording Info:
(FOB) Nakamichi 700 -> Cassette Master (Sony D5/Maxell UDXL-IIS)

Transfer Info:
Cassette Master (Nakamichi DR-1) -> Sound Devices 744T (24bit/96k) ->
Samplitude Professional v10.1 -> FLAC/24
(1 DVD FLAC)

All Transfers and Mastering By Charlie Miller
[email protected]
October 14, 2008

Patch Info:
(FOB) Nakamichi 700 -> Cassette Master (shnid=84826) supplies:
Althea (3:57 - 4:01)

(FOB) Unknown Mics -> Cassette Master -> CD (shnid=7217) supplies:
Drums (12:55 - 13:04)

Notes:
-- Thanks to Steve Rolfe for lending me his masters

Set 1:
s1t01 - Tuning
s1t02 - Feel Like A Stranger
s1t03 - Sugaree
s1t04 - Me And My Uncle ->
s1t05 - Big River
s1t06 - Peggy-O
s1t07 - C C Rider
s1t08 - Althea
s1t09 - Passenger
s1t10 - China Cat Sunflower ->
s1t11 - I Know You Rider

Set 2:
s2t01 - Tuning
s2t02 - Alabama Getaway ->
s2t03 - Greatest Story Ever Told
s2t04 - Ship Of Fools
s2t05 - Lost Sailor ->
s2t06 - Saint Of Circumstance ->
s2t07 - Drums ->
s2t08 - Space ->
s2t09 - The Other One ->
s2t10 - Stella Blue ->
s2t11 - I Need A Miracle ->
s2t12 - Bertha ->
s2t13 - Good Lovin'

Encore:
s2t14 - One More Saturday Night


SHNTOOL OUTPUT:
    length     expanded size   cdr  WAVE problems filename
     2:06.613      72929324    cxx   --   -----   gd81-03-14s1t01.wav
     8:35.853     297131564    cxx   --   -----   gd81-03-14s1t02.wav
    12:39.573     437514284    cxx   --   -----   gd81-03-14s1t03.wav
     2:56.653     101752364    cxx   --   -----   gd81-03-14s1t04.wav
     6:02.600     208857644    cxx   --   -----   gd81-03-14s1t05.wav
     7:45.627     268201004    cxx   --   -----   gd81-03-14s1t06.wav
     9:17.613     321185324    cxx   --   -----   gd81-03-14s1t07.wav
     9:43.467     336076844    cxx   --   -----   gd81-03-14s1t08.wav
     5:51.627     202537004    cxx   --   -----   gd81-03-14s1t09.wav
     5:36.640     193904684    cxx   --   -----   gd81-03-14s1t10.wav
     6:34.784     227395610    cxx   --   -----   gd81-03-14s1t11.wav
     1:55.120      66309164    cxx   --   -----   gd81-03-14s2t01.wav
     5:12.053     179742764    cxx   --   -----   gd81-03-14s2t02.wav
     4:51.467     167884844    cxx   --   -----   gd81-03-14s2t03.wav
     9:15.747     320110124    cxx   --   -----   gd81-03-14s2t04.wav
     6:41.320     231160364    cxx   --   -----   gd81-03-14s2t05.wav
     7:02.173     243171884    cxx   --   -----   gd81-03-14s2t06.wav
    13:14.213     457466924    cxx   --   -----   gd81-03-14s2t07.wav
     0:25.907      14922284    cxx   --   -----   gd81-03-14s2t08.wav
     7:44.413     267502124    cxx   --   -----   gd81-03-14s2t09.wav
    10:06.760     349493804    cxx   --   -----   gd81-03-14s2t10.wav
     3:26.547     118970924    cxx   --   -----   gd81-03-14s2t11.wav
     6:03.013     209095724    cxx   --   -----   gd81-03-14s2t12.wav
     8:16.267     285849644    cxx   --   -----   gd81-03-14s2t13.wav
     5:08.978     177971138    cxx   --   -----   gd81-03-14s2t14.wav
   166:35.028    5757137360 B                     (totals for 25 files)
Show Checksums
ffp
gd81-03-14s1t01.flac:ca2e3ea8c69e59c6ba992abed1aa5c9a
gd81-03-14s1t02.flac:21f699c0d5c33822688c47081be10831
gd81-03-14s1t03.flac:08689db1f1bf3a47013eee5729c1f94d
gd81-03-14s1t04.flac:53104f01372a3bf7e8a0e9eab99630f2
gd81-03-14s1t05.flac:426dc8adccfdf4001d4f4c392dffefc4
gd81-03-14s1t06.flac:cc8dea40d74de9c6a21a3b4be152ff3e
gd81-03-14s1t07.flac:2fbfe784c6d4b61c26b6fb253af83db4
gd81-03-14s1t08.flac:1683c7a73bfe6d549141d491d7f57825
gd81-03-14s1t09.flac:f84aa15f5083e8af9ae4477ea37fed8e
gd81-03-14s1t10.flac:deced39fb1dde6e351680c3429567f99
gd81-03-14s1t11.flac:d21b06e3d374c0b76dbb59309bb4b68e
gd81-03-14s2t01.flac:5269368a1e64c3ad94ba0fc49663da10
gd81-03-14s2t02.flac:a4570e2ab4acda5d9aaa5072e07b795b
gd81-03-14s2t03.flac:21c391b992cd03426d76cbad6a18e47b
gd81-03-14s2t04.flac:8d69222d85c1f22233c32febfc36cd7c
gd81-03-14s2t05.flac:6c09c748152ea4921e6a86559b2a5970
gd81-03-14s2t06.flac:56eac0b17b9f0e157cba6796594f57c3
gd81-03-14s2t07.flac:4f40da0d6c8288574e8106b95dea151f
gd81-03-14s2t08.flac:7c49e4aa94fbe448d4676ed0adb56f6a
gd81-03-14s2t09.flac:c01a477b7acef90aa8544d782abefe1a
gd81-03-14s2t10.flac:4f057ffaaee8fa160c94491763eb7613
gd81-03-14s2t11.flac:a4ff499b1fa665a3f0b698069aaf0197
gd81-03-14s2t12.flac:00110b36be14ad9c50a936832e504371
gd81-03-14s2t13.flac:d7468334600abedae483a7bb34223939
gd81-03-14s2t14.flac:a42b3c978769cc2373c21421c48f690e
flac-md5
18a2e59490229b09e7801d40f5385a36 *gd81-03-14s1t01.flac
f804abdd12c4323ff93f933a9210dbdd *gd81-03-14s1t02.flac
c7c2fd904604da2587913aface823eeb *gd81-03-14s1t03.flac
d8fdeb1eafc8878808cccc9af55f89f7 *gd81-03-14s1t04.flac
15248f5b5e556cfa1df1bf7b207f5403 *gd81-03-14s1t05.flac
aeff2e22e4c8700aec4a0a049a5db904 *gd81-03-14s1t06.flac
2a260811bf88928f40203d6bfbe98f0c *gd81-03-14s1t07.flac
d02cc9c68ddd2283b1ddf9b0e360a512 *gd81-03-14s1t08.flac
fbc3c8589c481cdef1429e42a4d54846 *gd81-03-14s1t09.flac
14630e7df3a78b0b33e51d9f35b66969 *gd81-03-14s1t10.flac
a2ce8c77b4bde335cbf3b230fb13fa16 *gd81-03-14s1t11.flac
da1c1cc9b1bbf8be20de6432b0532d6e *gd81-03-14s2t01.flac
828290f5c13c2e1eca76fe0ddc4b0121 *gd81-03-14s2t02.flac
60ca59e74580f09cb02ac2c4e987c0e1 *gd81-03-14s2t03.flac
ee189be44c935a00cfdd03d804fd91a1 *gd81-03-14s2t04.flac
4791c3f4d9a005e88018795f3ec38095 *gd81-03-14s2t05.flac
626fb296f070927d1b85983415914802 *gd81-03-14s2t06.flac
4516c0c4946abed1c31b9236378c4ddc *gd81-03-14s2t07.flac
bf8634194141add6f9b6bf6f6da253ba *gd81-03-14s2t08.flac
f4ce61c7aba2e3c2d09c8374c1e601e3 *gd81-03-14s2t09.flac
631335f97ae2e67b7b9ae45f83741026 *gd81-03-14s2t10.flac
7cbf7831aad14481df2026630c515ccd *gd81-03-14s2t11.flac
ccccc38a9ad7bbff5ef930d2743932dc *gd81-03-14s2t12.flac
6ce51cef18d4c5544beb4a0e000fdee4 *gd81-03-14s2t13.flac
7865103adab46caff9e373b2f68f75c8 *gd81-03-14s2t14.flac

Comments
Add Comment
Other Sources (comments)
Aud (?)-> CD-> EAC-> SHN;... (3) flac16; Recorded by... (0) flac16; Recording by... (0) flac16; Recording... (0) flac16; AUD: 3x... (1) flac16; Recording... (0) flac24; Cassette... (0) flac16; Source Info:... (0) flac24; Source Info:... (0)
Date User Comment