Browse Collections Artists Sources   Search Dates

Add Show    List Management    Help


Grateful Dead 08/12/81
Salt Palace, Salt Lake City, UT
Comments Add Comment    Source Collectors    Add to Collection    Add to Want List    History
Source # 95346 Other Sources
Entered by dr.unclear
Checksums ffp , flac-md5
Disc Counts 2 / 3
Media Size
Date Circulated
Date Added
10/17/2008
10/18/2008
Source Summary flac16; Source: aud > ??? > cass (unknown gens) Transfer: cass > Nakamichi BE-125E > EMU 0202 > Wavelab > wav (24/96) > flac 
  Archive
Source Information - Download Text | Download Zip
Grateful Dead
Salt Palace
Salt Lake City, UT
08/12/1981

Source: aud > ??? > cass (unknown gens)
Transfer: cass > Nakamichi BE-125E > EMU 0202 > Wavelab > wav (24/96) > flac


Disc 1
set I

01   tuning *
02   Alabama Getaway* >
03   Greatest Story Ever Told
04   Friend Of The Devil
05   Mama Tried >
06   Mexicali Blues
07   Jack-A-Roe
08   C C Rider
09   //Althea >
10   Lost Sailor >
11   Saint Of Circumstance


Disc 2
set II

01   //Might As Well
03   Man Smart, Woman Smarter
04   Scarlet Begonias >
05   Fire On The Mountain


Disc 3
set II cont'd

01   Estimated Prophet >
02   Eyes Of The World >
03   Drums >
04   Space >
05   Spanish Jam >
06   Truckin' >
07   Morning Dew >
08   Around And Around >
09   Good Lovin'

encore

10   US Blues



Notes:

- it was neccessary to re-assemble the show in the correct running order as it had been cut up to
   fit on the tapes.
- dc offset removed
- all tracks have been pitch corrected using the circulating sbd as a guide.  They were running between
   4% and 10% too fast
* tuning and the first 1:32 of "Alabama Getaway" patched in from shnid 10548.
- the first 7 seconds of "Althea" are missing.
- the start of "Might As Well" is clipped, 3 or 4 notes are missing.
- The first 6:52 of "Althea", all of "Might As Well"and the first 1:42 of "Man Smart, Woman Smarter"
   have an inferior sound quality.  They sounded quite muffled  and have a higher level of tape hiss,
   compared to the rest of the show.  I have brightened these sections to make them sound more
   consistent with the other tracks.  
-  there is a problem with "Man Smart, Woman Smarter"at 4:11.
- the tape was paused between songs, or these sections were cut out when the tapes were originally
   assembled, on a number of occasions.  Crossfades have been put in to smooth these out.



Comments:

This recording reveals that the circulating sbd has approximately 2:49 missing from "Eyes Of The World",
2:22 from the end of the first verse to about half way through the second and 27 seconds at the end.  Also
about 4 seconds at the start of "Good Lovin'" that is missing from the sbd.  Only about 8 seconds of music is
missing from the whole show!

This is somewhat of a "Curate's Egg" as regards the sound.  When it's good it's very good and there ARE a lot of very good parts!  Hopefully this version will prompt someone to dig deep and come up with a better copy of what is a great show.



Thanks to Uncle Barry for providing the tapes and Roeret for helping me out with the patch source


edited with Adobe Audition, mastered with iZotope Ozone, and resampled & dithered with iZotope RX Advanced

transferred, edited and mastered
SIRMick
October 2008


shntool output:

    length     expanded size   cdr  WAVE problems filename
     1:08.52       12117548    ---   --   ---xx   gd1981-08-12d1t01.flac
     4:54.32       51936908    ---   --   ---xx   gd1981-08-12d1t02.flac
     4:17.44       45438332    ---   --   ---xx   gd1981-08-12d1t03.flac
     9:17.47       98365388    ---   --   ---xx   gd1981-08-12d1t04.flac
     2:27.28       25996700    ---   --   ---xx   gd1981-08-12d1t05.flac
     4:37.12       48891068    ---   --   ---xx   gd1981-08-12d1t06.flac
     4:44.47       50208188    ---   --   ---xx   gd1981-08-12d1t07.flac
     7:30.36       79464716    ---   --   ---xx   gd1981-08-12d1t08.flac
     9:17.30       98325404    ---   --   ---xx   gd1981-08-12d1t09.flac
     7:02.32       74516108    ---   --   ---xx   gd1981-08-12d1t10.flac
     6:47.00       71794844    ---   --   ---xx   gd1981-08-12d1t11.flac
     4:14.30       44876204    ---   --   ---xx   gd1981-08-12d2t01.flac
     4:59.04       52753052    ---   --   ---xx   gd1981-08-12d2t02.flac
    11:49.56      125199356    ---   --   ---xx   gd1981-08-12d2t03.flac
    11:05.46      117414236    ---   --   ---xx   gd1981-08-12d2t04.flac
    11:21.47      120238988    ---   --   ---xx   gd1981-08-12d3t01.flac
    10:31.63      111456620    ---   --   ---xx   gd1981-08-12d3t02.flac
    12:39.60      134028764    ---   --   ---xx   gd1981-08-12d3t03.flac
     2:59.28       31641500    ---   --   ---xx   gd1981-08-12d3t04.flac
     2:53.59       30656012    ---   --   ---xx   gd1981-08-12d3t05.flac
     8:04.25       85436444    ---   --   ---xx   gd1981-08-12d3t06.flac
    11:32.30      122139404    ---   --   ---xx   gd1981-08-12d3t07.flac
     3:59.42       42258428    ---   --   ---xx   gd1981-08-12d3t08.flac
     7:47.25       82437644    ---   --   ---xx   gd1981-08-12d3t09.flac
     5:21.70       56789084    ---   --   ---xx   gd1981-08-12d3t10.flac
   171:25.45     1814380940 B                     (totals for 25 files, 0.5624 overall compression ratio)
Show Checksums
ffp
gd1981-08-12d1t01.flac:3889762de3edbc814798805249becfef
gd1981-08-12d1t02.flac:8c5cc92dcf0b9af566d38e4e8e524999
gd1981-08-12d1t03.flac:77a5119e5a3f2bdc737834eebc3c7b4d
gd1981-08-12d1t04.flac:b694464348ba2528dfc24545c62a92cf
gd1981-08-12d1t05.flac:dcd97a1432319254ea30d3d25128f6d5
gd1981-08-12d1t06.flac:d4be97955e8d79ac85317abaca63682d
gd1981-08-12d1t07.flac:fc75f6af1b55846bff0c00ba4f13b0b7
gd1981-08-12d1t08.flac:3df3c079e3aaefb7736709236b84467b
gd1981-08-12d1t09.flac:3ed40f269fd999871fd9b8092be8f5fa
gd1981-08-12d1t10.flac:8fcabed8733849f3255afc1286095fe3
gd1981-08-12d1t11.flac:9555c89320236f3681c24f5c71c8f5c6
gd1981-08-12d2t01.flac:7bc66cbcfc8016505a76e3feba945c93
gd1981-08-12d2t02.flac:e01d30767d2bf5e0278f7fc7051c9955
gd1981-08-12d2t03.flac:12fb07c6b086d51a6687257e6009065b
gd1981-08-12d2t04.flac:28d1921b56feded170882b4c72714ebc
gd1981-08-12d3t01.flac:6b9e75c8c1d008a72fa82204f357622e
gd1981-08-12d3t02.flac:0bfada7ce047c817dfc9f973a24d6479
gd1981-08-12d3t03.flac:938ba89e38fcd2892decc4142304e5ba
gd1981-08-12d3t04.flac:ca56fb58e4de82fac71a193072993fee
gd1981-08-12d3t05.flac:25abfa7f3f32d22425da46e71ba9bb64
gd1981-08-12d3t06.flac:90f106dda411f359f30b230420c632a1
gd1981-08-12d3t07.flac:9f2d787b1881cc2f7518e055b952c2df
gd1981-08-12d3t08.flac:c59db1ca4abb5dc5a522d78afd779487
gd1981-08-12d3t09.flac:ef4bfe684bbb81797f3017c7c9ec3bc0
gd1981-08-12d3t10.flac:4a7e963b4fac031b897f03686d108d80
flac-md5
ea84eb085339d8b3d001f59382482405 *gd1981-08-12d1t01.flac
456aef55a7478324888880f65274bcc8 *gd1981-08-12d1t02.flac
d427ba205d2b6b0828d4a1cd52b6753f *gd1981-08-12d1t03.flac
67dd8fa0525f442122d7eb02c3d5a305 *gd1981-08-12d1t04.flac
8ebc3bd5f60535fd0f98fdc90219cfbf *gd1981-08-12d1t05.flac
1003011f90255b4c6569124548fd6d09 *gd1981-08-12d1t06.flac
b20f23a6e46807ecbc7a0e23b9121d17 *gd1981-08-12d1t07.flac
936c447222df1f39f7572f36426c901e *gd1981-08-12d1t08.flac
12f2b7e29292ac7b2a9ff069ff519225 *gd1981-08-12d1t09.flac
a783071457b30a25c0707030068afa13 *gd1981-08-12d1t10.flac
fd18607884aee41588c227c2a2641a2a *gd1981-08-12d1t11.flac
82a537ae0cad62c638dc4283fdefd6eb *gd1981-08-12d2t01.flac
321584afe4a85a01f0736fe89f7e627f *gd1981-08-12d2t02.flac
59e5a416dd285fccc83952ac0a869a3c *gd1981-08-12d2t03.flac
748f73a2cdcbacf0ce9b52a29197596a *gd1981-08-12d2t04.flac
596d0cda249af4dc830441e16b28509b *gd1981-08-12d3t01.flac
82f05c958a9565aeab864d2d2312f2b8 *gd1981-08-12d3t02.flac
413f87356fb386546f05046ed100eaf6 *gd1981-08-12d3t03.flac
d552a8facb0c25a3fec0cc555f5197b2 *gd1981-08-12d3t04.flac
7c6acd506e6ba7341e6de06f497561b2 *gd1981-08-12d3t05.flac
628540e51e507a17adf79ea16fe0ae37 *gd1981-08-12d3t06.flac
1d6cf6e852fa446a9e4952f1698ab227 *gd1981-08-12d3t07.flac
b196dde779799de859b7fef2470dc5c2 *gd1981-08-12d3t08.flac
a097e4242825f259ad346cface2411f9 *gd1981-08-12d3t09.flac
0a3a5ae95c0244a906ed60e1c8d74ea1 *gd1981-08-12d3t10.flac

Comments
Add Comment
Other Sources (comments)
SBD>MC>R>DAT>CDR (with... (1) flac16; Recording... (0) flac24; Partial... (0) flac16/48kHz;... (0) flac16/48 Source... (0) flac24/96 Source... (0)
Date User Comment