Browse Collections Artists Sources   Search Dates

Add Show    List Management    Help


Grateful Dead 06/26/76
Auditorium Theatre, Chicago, IL
Comments Add Comment    Source Collectors    Add to Collection    Add to Want List    History
Source # 95355 Other Sources
Entered by dr.unclear
Checksums ffp , flac-md5
Disc Counts 2 / 3
Media Size
Date Circulated
Date Added
10/20/2008
10/19/2008
Source Summary flac16; Matrix by Hunter Seamons using Final Cut Pro (SHN & FLAC>AIFF>Final Cut>WAV>FLAC) 
  Archive
Source Information - Download Text | Download Zip
Grateful Dead
Auditorium Theatre
Chicago, IL
June 26, 1976



*Matrix*

----------------------------------------------------
SBD:

Recording Info:
SBD -> Master Cassette -> Apogee Ensemble -> Peak -> AIFF

Transfer Info:
AIFF -> Adobe Audition v1.5 -> Samplitude Professional v10.1 -> FLAC
(3 Discs Audio / 2 Discs FLAC)

All Transfers and Mastering By Charlie Miller
[email protected]
October 7, 2008

[Cuts]

Tennessee Jed (7:38 - end of track)
Crazy Fingers (0:42 - 1:12)

Notes:
-- All disc changes are seamless
-- Thanks to Joe B. Jones for his help with the pitch correction

----------------------------------------------------
AUD:

Source: Aud > ??? > cdr's > EAC > Cool Edit 2K > CDwav > mkwact (seekable)

eac, Cool Edit's, shns done by [email protected]
thanks to doug ferguson for supplying the source cds

---------------------------------------------------
Thank you to Charlie Miller for the SBD transfer
to Matt Vernon and Doug Ferguson for the AUD transfer,
and to Mr. B. for verifying the pitch.

Matrix by Hunter Seamons using Final Cut Pro (SHN & FLAC>AIFF>Final Cut>WAV>FLAC)
October 19, 2008


Set I
-----
d1t01 - Tuning
d1t02 - The Promised Land
d1t03 - Sugaree
d1t04 - Cassidy
d1t05 - Row Jimmy
d1t06 - Mama Tried
d1t07 - Tennessee Jed
d1t08 - Looks Like Rain
d1t09 - Scarlet Begonias
d1t10 - Lazy Lightnin' ->
d1t11 - Supplication
d2t01 - Peggy-O
d2t02 - The Music Never Stopped

Set II
-----
d2t03 - Tuning
d2t04 - Playing In The Band ->
d2t05 - Saint Stephen ->
d2t06 - The Wheel ->
d2t07 - Playing In The Band
d2t08 - Samson And Delilah
d3t01 - Crazy Fingers ->
d3t02 - Stella Blue
d3t03 - Around And Around ->
d3t04 - One More Saturday Night

Encore
------
d3t05 - U.S. Blues
  

Notes:

1) Cuts in the AUD between some songs and at beginning of Tuning tracks. Begonias is missing from the AUD. Three second cut in the AUD during Fingers.

2) The left channel of the AUD was slightly higher than the right. This was adjusted.


    length     expanded size    cdr  WAVE problems  fmt   ratio  filename
     1:28.54       15650252 B   ---   --   ---xx  gd76-06-26d1t01.flac
     5:21.41       56720876 B   ---   --   ---xx  gd76-06-26d1t02.flac
    11:07.28      117724700 B   ---   --   ---xx  gd76-06-26d1t03.flac
     5:22.11       56826716 B   ---   --   ---xx  gd76-06-26d1t04.flac
    11:18.09      119620412 B   ---   --   ---xx  gd76-06-26d1t05.flac
     3:52.55       41054204 B   ---   --   ---xx  gd76-06-26d1t06.flac
     9:49.19      103944332 B   ---   --   ---xx  gd76-06-26d1t07.flac
     8:17.72       87840188 B   ---   --   ---xx  gd76-06-26d1t08.flac
    12:27.16      131808476 B   ---   --   ---xx  gd76-06-26d1t09.flac
     2:54.18       30735980 B   ---   --   ---xx  gd76-06-26d1t10.flac
     6:02.28       63922700 B   ---   --   ---xx  gd76-06-26d1t11.flac
     9:00.73       95427740 B   ---   --   ---xx  gd76-06-26d2t01.flac
     6:10.63       65416220 B   ---   --   ---xx  gd76-06-26d2t02.flac
     2:40.39       28315772 B   ---   --   ---xx  gd76-06-26d2t03.flac
    15:02.60      159253964 B   ---   --   ---xx  gd76-06-26d2t04.flac
     9:46.19      103415132 B   ---   --   ---xx  gd76-06-26d2t05.flac
     4:41.56       49700156 B   ---   --   ---xx  gd76-06-26d2t06.flac
     6:28.62       68589068 B   ---   --   ---xx  gd76-06-26d2t07.flac
     6:46.26       71679596 B   ---   --   ---xx  gd76-06-26d2t08.flac
     9:22.32       99212108 B   ---   --   ---xx  gd76-06-26d3t01.flac
    13:01.08      137787260 B   ---   --   ---xx  gd76-06-26d3t02.flac
     6:47.08       71813660 B   ---   --   ---xx  gd76-06-26d3t03.flac
     6:02.70       64021484 B   ---   --   ---xx  gd76-06-26d3t04.flac
     5:22.43       56901980 B   ---   --   ---xx  gd76-06-26d3t05.flac
   179:16.10     1897382976 B                            0.6261  (24 files)


  
Show Checksums
ffp
gd76-06-26d1t01.flac:a53ee74bc997010b37e7ea9e7e61add7
gd76-06-26d1t02.flac:11a003837725380846c0e44487fdf9fc
gd76-06-26d1t03.flac:1f0c62cdf782ce68c6d9a30cee8ed7dc
gd76-06-26d1t04.flac:d8b888941fe2e1f66e86706e28052752
gd76-06-26d1t05.flac:54887e7ba700af8af158a7c18ad17148
gd76-06-26d1t06.flac:782c93ca7990dabd92af6ccc63ec9d7e
gd76-06-26d1t07.flac:52c9b2a062ff57f17536e43845f08d50
gd76-06-26d1t08.flac:e1d1bb254fb140b82c7f55907eac7860
gd76-06-26d1t09.flac:fb8686d83bd0faa13a3533b883778479
gd76-06-26d1t10.flac:8a59a30407fe214952f1d238cc7d8cb0
gd76-06-26d1t11.flac:2b0e92340a8e2f61d45d029c27d386dc
gd76-06-26d2t01.flac:08060b87ed66dfa7c1e23597a6ef746f
gd76-06-26d2t02.flac:b2af5db3202ac45c5e7f7a443efea133
gd76-06-26d2t03.flac:52d9f2ce2ad05e90424d367f3d5248fb
gd76-06-26d2t04.flac:101f473d25c54743d3de8a9c42e96709
gd76-06-26d2t05.flac:df42cd84df08c12720b280fab8cc4922
gd76-06-26d2t06.flac:01e27751707095787ad17dded9d56280
gd76-06-26d2t07.flac:6555341e56360901a6470a35025b3167
gd76-06-26d2t08.flac:1c085760b0fbae2fd1af4ece7338a0e5
gd76-06-26d3t01.flac:ec04c113cc2cf9c62821cd96ab5d08da
gd76-06-26d3t02.flac:2d1bcb95cd9bde311ff9cc2db9db0233
gd76-06-26d3t03.flac:7f71cf8da8dbdd6bd18fc8411c0d347f
gd76-06-26d3t04.flac:5f32f1b38d2ba5b35a0fd30879da2642
gd76-06-26d3t05.flac:ce78eed85832b254e0a453b2e763374e
flac-md5
e78349c6b56820542fcb124f2cae36ef *gd76-06-26d1t01.flac
075961105602bf75c9dc4e872e61608a *gd76-06-26d1t02.flac
d42c974acbf0e4162bacd51fc7efe841 *gd76-06-26d1t03.flac
a1d6ed67b56fc852651d06b81f8c7d5a *gd76-06-26d1t04.flac
37134352800b359760c11046efca6479 *gd76-06-26d1t05.flac
d5b245afcb2efa8395d1d44fdd8a0419 *gd76-06-26d1t06.flac
cc46ceacea8e06e5e73d38d2320105e3 *gd76-06-26d1t07.flac
0c9cf5e2170bfbbeefefec0605a67190 *gd76-06-26d1t08.flac
9bde6467d648355f53b433df3f6f9776 *gd76-06-26d1t09.flac
a9801273bebe32ae7d6220d6278f32fe *gd76-06-26d1t10.flac
7a2613c83def222113c873bdb33968d8 *gd76-06-26d1t11.flac
84d5490d7f54e6481322aaf077c82a48 *gd76-06-26d2t01.flac
bf7b36088d228575bbbcd2fe7d30b87e *gd76-06-26d2t02.flac
fb05c0082b66c48baf50a464ad33acb7 *gd76-06-26d2t03.flac
7bbba08109a3168354cb8efdb15358a5 *gd76-06-26d2t04.flac
af624ee602fe53f2dc1904640f830e46 *gd76-06-26d2t05.flac
a4726c953279979e4da4cbf2699bb328 *gd76-06-26d2t06.flac
ccf643c6425d5d72692135ce24b02327 *gd76-06-26d2t07.flac
3e78e81a5f71ea8e42f6d4ac8f63eb9f *gd76-06-26d2t08.flac
d1ecef8642e1c339adc907adf51a65ab *gd76-06-26d3t01.flac
4ab92edd878c374d02d148ee1bede4bd *gd76-06-26d3t02.flac
15a1bafa5de165343cfc38f47ee6ef39 *gd76-06-26d3t03.flac
6f947fbfb1c573a90f871d9dbc2ba8a7 *gd76-06-26d3t04.flac
346aa1378577e3fa9fde76eed9f51573 *gd76-06-26d3t05.flac

Comments
Add Comment
Other Sources (comments)
Aud > ??? > cdr's > EAC >... (0) flac16; Recording... (0) flac16; Set 2,... (0)
Date User Comment