Browse Collections Artists Sources   Search Dates

Add Show    List Management    Help


Grateful Dead 11/15/87
Long Beach Arena, Long Beach, CA
Comments Add Comment    Source Collectors    Add to Collection    Add to Want List    History
Source # 95402 Other Sources
Entered by Gary Field
Checksums ffp , flac-md5
Disc Counts 2 / 2
Media Size
Date Circulated
Date Added
10/23/2008
10/22/2008
Source Summary flac16; Recording Info: SBD -> Sony D6 Cassette Master (TDK MA-R90); Transfer Info:Cassette Master (Nakamichi DR-1) -> Sound Devices 744T (24bit/48k) -> Samplitude Professional v10.1 -> FLAC/16; All Transfers and Mastering By Charlie Miller 
  Archive
Source Information - Download Text | Download Zip
Grateful Dead - November 15, 1987
Long Beach Arena - Long Beach, CA

Updated Recording Info:
SBD -> Sony D6 Cassette Master (TDK MA-R90)
(Had been marked: SBD -> Dat -> Cassette Master (TDK MA-R90))

Transfer Info:
Cassette Master (Nakamichi DR-1) -> Sound Devices 744T (24bit/48k) ->
Samplitude Professional v10.1 -> FLAC/16
(2 Discs Audio / 2 Discs FLAC)

All Transfers and Mastering By Charlie Miller
[email protected]
October 21, 2008

Notes:
-- Disc change is seamless

Set 1:
d1t01 - Iko Iko
d1t02 - Walkin' Blues
d1t03 - Candyman
d1t04 - Me And My Uncle ->
d1t05 - Mexicali Blues
d1t06 - West L.A. Fadeaway
d1t07 - Cassidy
d1t08 - Don't Ease Me In

Set 2:
d1t09 - Scarlet Begonias ->
d1t10 - Fire On The Mountain
d2t01 - Looks Like Rain ->
d2t02 - He's Gone ->
d2t03 - Drums ->
d2t04 - Space ->
d2t05 - The Other One ->
d2t06 - Morning Dew ->
d2t07 - Around And Around ->
d2t08 - All Along The Watchtower

Encore:
d2t09 - Black Muddy River


SHNTOOL OUTPUT:
    length     expanded size   cdr  WAVE problems filename
     6:56.64       73532972    ---   --   -----   gd87-11-15d1t01.wav
     7:27.26       78911996    ---   --   -----   gd87-11-15d1t02.wav
     8:28.28       89677100    ---   --   -----   gd87-11-15d1t03.wav
     3:01.45       32034284    ---   --   -----   gd87-11-15d1t04.wav
     4:58.07       52583708    ---   --   -----   gd87-11-15d1t05.wav
     8:34.10       90693164    ---   --   -----   gd87-11-15d1t06.wav
     6:24.21       67787036    ---   --   -----   gd87-11-15d1t07.wav
     3:40.40       38902124    ---   --   -----   gd87-11-15d1t08.wav
     9:25.50       99783644    ---   --   -----   gd87-11-15d1t09.wav
    10:27.46      110711036    ---   --   -----   gd87-11-15d1t10.wav
     9:35.62      101575868    ---   --   -----   gd87-11-15d2t01.wav
    10:56.43      115819580    ---   --   -----   gd87-11-15d2t02.wav
     8:11.30       86683004    ---   --   -----   gd87-11-15d2t03.wav
     7:00.74       74262092    ---   --   -----   gd87-11-15d2t04.wav
     6:51.15       72535724    ---   --   -----   gd87-11-15d2t05.wav
    10:52.11      115038716    ---   --   -----   gd87-11-15d2t06.wav
     3:54.46       41385836    ---   --   -----   gd87-11-15d2t07.wav
     5:45.48       60970940    ---   --   -----   gd87-11-15d2t08.wav
     6:37.43       70131980    ---   --   -----   gd87-11-15d2t09.wav
   139:10.34     1473020804 B                     (totals for 19 files)
Show Checksums
ffp
gd87-11-15d1t01.flac:eb12699d7d8a0ad19f6db5bc49abac2b
gd87-11-15d1t02.flac:d53c57291e9e77878c5d72129dfc590c
gd87-11-15d1t03.flac:6e310b39a2f134fda2ff202e612ff302
gd87-11-15d1t04.flac:88a5feb61112050b5e1005cdc14dadef
gd87-11-15d1t05.flac:2da6dc98d985da8030efac34304168fd
gd87-11-15d1t06.flac:baaf2cd1613272795dbfd16ca41b9811
gd87-11-15d1t07.flac:e443c493d6fcb20d5f5d37a9adb6e1fc
gd87-11-15d1t08.flac:3831e0e99cc3ac44208e1fc6848c0aa7
gd87-11-15d1t09.flac:4d177ffbc1871db755d8211b7fdac50e
gd87-11-15d1t10.flac:08a088bf584afa77a21958fd5870a291
gd87-11-15d2t01.flac:ef9a622cb675c7692f55ebfadbcf9d29
gd87-11-15d2t02.flac:933568f44bcf606735b4e6eca499d4b4
gd87-11-15d2t03.flac:dcf03df860853b1d5e3f75d550965db2
gd87-11-15d2t04.flac:5b69b8b75265b722a4234c15a8ee45bc
gd87-11-15d2t05.flac:a033995dd40c617207dc79cf948189db
gd87-11-15d2t06.flac:e4922087ad33e12abaedff877098c303
gd87-11-15d2t07.flac:4e7d9b5b8f79a408df8da2785eaf0b06
gd87-11-15d2t08.flac:c6df7551f010763616248ac954a55e02
gd87-11-15d2t09.flac:33ca42d582c82dfab9be833dd3b4d6d5
flac-md5
fb71746602d08bf63f7d9037850ceec8 *gd87-11-15d1t01.flac
6904dd4808790c61a470446dc33ecc07 *gd87-11-15d1t02.flac
4cbdb726908bb78cfb052aa347de7661 *gd87-11-15d1t03.flac
d694f8d714136442746b3f8c76db72dd *gd87-11-15d1t04.flac
0dc2a8b9b00e6ee4bf1d813b904dae52 *gd87-11-15d1t05.flac
d367d3f127ee529f41b37eff117d8b01 *gd87-11-15d1t06.flac
b3802a4aa935b9aeeae24ccfb137de7e *gd87-11-15d1t07.flac
1ec20c416a03ff67965978fee964169b *gd87-11-15d1t08.flac
2a58fd5563f0ac6afa7cd60f5a136022 *gd87-11-15d1t09.flac
08eaa618f57cec8b1f60c6784e291cdb *gd87-11-15d1t10.flac
2cc3308812872aa3d16cbff5995d5cb4 *gd87-11-15d2t01.flac
7d5a34f1bc174f1da963218351b59826 *gd87-11-15d2t02.flac
4636a3c3445fe49f1a17ee9ac107f28a *gd87-11-15d2t03.flac
a7e0b8de26fa22e255de68a1afb38698 *gd87-11-15d2t04.flac
8b9e0d22fe8b38dc695e7c235b21590e *gd87-11-15d2t05.flac
ed54cf68ba87b9331b9622e1cc1c18f3 *gd87-11-15d2t06.flac
09d56829240313f5ebf67eac862c0f7c *gd87-11-15d2t07.flac
fec811f5539d9b53199d7493d9cc68f0 *gd87-11-15d2t08.flac
a104eff746a99f8c33de6480954cde9c *gd87-11-15d2t09.flac

Comments
Add Comment
Other Sources (comments)
SBD > MC > Sonic Solutions... (6) Digital Ambient recording... (0) Sennheiser441>tcd5m>cas(1st... (0) flac16; edited... (0)
Date User Comment