Browse Collections Artists Sources   Search Dates

Add Show    List Management    Help


Ratdog 08/30/08
Red Rocks Amphitheatre, Morrison, CO
Comments Add Comment    Source Collectors    Add to Collection    Add to Want List    History
Source # 95403 Other Sources
Entered by ziko
Checksums ffp
Disc Counts 2 / 2
Media Size
Date Circulated
Date Added
09/14/08
10/22/2008
Source Summary flac16;Source: AKG c460b/ck1(DIN)>mini MP>HD-P2 @ 24/48; Location: Slight LOC Row 16, @ 7' High; Transfer: CF Card>CDWAVE>WAVELAB>Flac; Taper: jkbyram 
Source Information - Download Text | Download Zip
Ratdog
2008-08-30
Red Rocks Amphitheater
Morrison, CO

Source: AKG c460b/ck1(DIN)>mini MP>HD-P2 @ 24/48
Location: Slight LOC Row 16, @ 7' High
Transfer: CF Card>CDWAVE>WAVELAB>Flac
Taper: jkbyram

**16 bit files for CD burning**

Disc 1
01. Help On The Way  
02. Slipknot!
03. Loser
04. Bird Song
05. Loose Lucy
06. Bertha  
07. Looks Like Rain
08. A Hard Rain's A-Gonna Fall

Disc 2
01. West L.A. Fadeaway
02. Ashes and Glass  
03. Jam
04. Morning Dew
ENCORE
05. Not Fade Away

Notes:
-wavelab used to raise level, resample/dither  


shntool 3.0.4
Copyright (C) 2000-2007 Jason Jordan

    length     expanded size    cdr  WAVE problems  fmt   ratio  filename
    10:48.59      114446012 B   ---   --   -----    wav  1.0000  ratdog2008-08-30d1t01.wav
     7:22.51       78088796 B   ---   --   -----    wav  1.0000  ratdog2008-08-30d1t02.wav
    12:18.58      130319660 B   ---   --   -----    wav  1.0000  ratdog2008-08-30d1t03.wav
    16:01.50      169638044 B   ---   --   -----    wav  1.0000  ratdog2008-08-30d1t04.wav
     8:52.53       93969500 B   ---   --   -----    wav  1.0000  ratdog2008-08-30d1t05.wav
     9:56.12      105162668 B   ---   --   -----    wav  1.0000  ratdog2008-08-30d1t06.wav
    11:26.25      121069244 B   ---   --   -----    wav  1.0000  ratdog2008-08-30d1t07.wav
    10:05.25      106780844 B   ---   --   -----    wav  1.0000  ratdog2008-08-30d1t08.wav
     9:10.52       97142348 B   ---   --   -----    wav  1.0000  ratdog2008-08-30d2t01.wav
     9:43.09      102862412 B   ---   --   -----    wav  1.0000  ratdog2008-08-30d2t02.wav
     7:19.30       77510204 B   ---   --   -----    wav  1.0000  ratdog2008-08-30d2t03.wav
    12:02.48      127473740 B   ---   --   -----    wav  1.0000  ratdog2008-08-30d2t04.wav
     9:48.01      103725596 B   ---   --   -----    wav  1.0000  ratdog2008-08-30d2t05.wav
   134:56.23     1428189068 B                            1.0000  (13 files)

Show Checksums
ffp
ratdog2008-08-30d1t01.flac:630285c9d3904bf9b386b54698488469
ratdog2008-08-30d1t02.flac:616b72efa8cd0e9cc77467d5f74e9ed4
ratdog2008-08-30d1t03.flac:81d357d25b1d29f08ccef46709a498ea
ratdog2008-08-30d1t04.flac:a910bb99f542b55f699cd56c9f6fd10b
ratdog2008-08-30d1t05.flac:777d9eda146b85c7d2dd0931ce2476d6
ratdog2008-08-30d1t06.flac:ebf73ddb3e02bed04dc54a692f9eb1e5
ratdog2008-08-30d1t07.flac:de20b6ee312135d0e913bdba868e5c08
ratdog2008-08-30d1t08.flac:3f7b29179bb08b02e0240099daf6e7e0
ratdog2008-08-30d2t01.flac:9889b5f8203587202d07466482d77323
ratdog2008-08-30d2t02.flac:cfd3c0d7c202da8317935f8cf52dbaa0
ratdog2008-08-30d2t03.flac:b60343df6c6f69da4d352e467100507d
ratdog2008-08-30d2t04.flac:689ee43c9bd6139fb065c782593a5cb0
ratdog2008-08-30d2t05.flac:f976cadeb315c2db031f6ca449050fb7

Comments
Add Comment
Other Sources (comments)
flac16;Source:... (0) flac16;Source: Milab... (0)
Date User Comment