Browse Collections Artists Sources   Search Dates

Add Show    List Management    Help


Grateful Dead 11/13/87
Long Beach Arena, Long Beach, CA
Comments Add Comment    Source Collectors    Add to Collection    Add to Want List    History
Source # 95410 Other Sources
Entered by Gary Field
Checksums flac-md5 , ffp
Disc Counts 2 / 2
Media Size
Date Circulated
Date Added
10/24/2008
10/23/2008
Source Summary flac16; Recording Info: Set 1: SBD -> Cassette Master -> Cassette (Maxell XLIIS) Set 2: SBD -> Cassette Master (TDK MA-R90) Transfer Info: Set 1: Cassette -> Samplitude Professional v10.1 -> FLAC Set 2: Cassette Master (Nakamichi DR-1) -> Sound Devices 744T (24bit/96k) -> Samplitude Professional v10.1 -> FLAC/16 All Transfers and Mastering By Charlie Miller; Upgrade in circulation 
  Archive
Source Information - Download Text | Download Zip
Grateful Dead - November 13, 1987
Long Beach Arena - Long Beach, CA

Recording Info:
Set 1: SBD -> Cassette Master -> Cassette (Maxell XLIIS)
Set 2: SBD -> Cassette Master (TDK MA-R90)

Transfer Info:
Set 1: Cassette -> Samplitude Professional v10.1 -> FLAC
Set 2: Cassette Master (Nakamichi DR-1) -> Sound Devices 744T (24bit/96k) ->
Samplitude Professional v10.1 -> FLAC/16
(2 Discs Audio / 2 Discs FLAC)

All Transfers and Mastering By Charlie Miller
[email protected]
October 21, 2008

Patch Info:
SBD -> Cassette Master -> Cassette (shnid=13568) supplies:
Space (0:55 - 0:59)

Notes:
-- Disc change is seamless
-- Set 1 is a remaster of shnid=13568

Set 1:
d1t01 - Hell In A Bucket ->
d1t02 - Sugaree
d1t03 - Minglewood Blues
d1t04 - Friend Of The Devil
d1t05 - Far From Me
d1t06 - Bird Song
d1t07 - Music Never Stopped

Set 2:
d1t08 - Bertha ->
d1t09 - Women Are Smarter
d1t10 - Ship OF Fools
d2t01 - Estimated Prophet ->
d2t02 - Drums ->
d2t03 - Space ->
d2t04 - The Wheel ->
d2t05 - Gimme Some Lovin' ->
d2t06 - Wharf Rat ->
d2t07 - Sugar Magnolia

Encore:
d2t08 - Knockin' On Heaven's Door


SHNTOOL OUTPUT:
    length     expanded size   cdr  WAVE problems filename
     6:05.23       64440140    ---   --   -----   gd87-11-13d1t01.wav
    10:52.51      115132796    ---   --   -----   gd87-11-13d1t02.wav
     7:32.44       79836332    ---   --   -----   gd87-11-13d1t03.wav
     8:48.46       93247436    ---   --   -----   gd87-11-13d1t04.wav
     4:38.26       49100396    ---   --   -----   gd87-11-13d1t05.wav
    10:59.03      116254700    ---   --   -----   gd87-11-13d1t06.wav
     7:04.64       74944172    ---   --   -----   gd87-11-13d1t07.wav
     7:10.16       75889676    ---   --   -----   gd87-11-13d1t08.wav
     7:31.23       79610540    ---   --   -----   gd87-11-13d1t09.wav
     8:17.51       87790796    ---   --   -----   gd87-11-13d1t10.wav
    12:20.61      130679516    ---   --   -----   gd87-11-13d2t01.wav
     8:38.52       91497548    ---   --   -----   gd87-11-13d2t02.wav
     6:41.43       70837580    ---   --   -----   gd87-11-13d2t03.wav
     4:19.11       45713516    ---   --   -----   gd87-11-13d2t04.wav
     5:03.40       53543324    ---   --   -----   gd87-11-13d2t05.wav
     8:45.68       92769980    ---   --   -----   gd87-11-13d2t06.wav
    10:13.50      108250844    ---   --   -----   gd87-11-13d2t07.wav
     8:14.66       87296876    ---   --   -----   gd87-11-13d2t08.wav
   143:18.63     1516836168 B                     (totals for 18 files)

Show Checksums
flac-md5
6a96dc1d912d957747ec2e22b07c05bd *gd87-11-13d1t01.flac
29146c23dc559790b144694f18297439 *gd87-11-13d1t02.flac
4df21aa6e37b333d68e28f3c73481eda *gd87-11-13d1t03.flac
9de603373ee944f176e613175d78437d *gd87-11-13d1t04.flac
66c18acd898afac18fffff0a68a94e9b *gd87-11-13d1t05.flac
6aca30d194d83130b04868eacb2190ad *gd87-11-13d1t06.flac
704aef34b139d6a069a052977f5fadbf *gd87-11-13d1t07.flac
a6514643d3402d8e75f08c8b3da2c255 *gd87-11-13d1t08.flac
1c4f134693a023660ce1ca9c4e39d7ba *gd87-11-13d1t09.flac
f9add14b3956825c804f7d4c37e42348 *gd87-11-13d1t10.flac
74296f63d8730e716941e4fb57fba295 *gd87-11-13d2t01.flac
40d315fbb5cb0913e629f03f5422e0d9 *gd87-11-13d2t02.flac
3bb8cfbe31bd4faafe811a00ff2debbe *gd87-11-13d2t03.flac
bae8437021c7448b73003e70991fb1a1 *gd87-11-13d2t04.flac
19a45cb9d329ca3ca34e49f353c354a9 *gd87-11-13d2t05.flac
0c0434e9afdd925a7efdfaf84a043e27 *gd87-11-13d2t06.flac
594f7513dddf32ce3436db5fe3d92f57 *gd87-11-13d2t07.flac
6d2fda75fee27af548be5b04c66cb2fc *gd87-11-13d2t08.flac
ffp
gd87-11-13d1t01.flac:5f1f7891ba535a1f2240eee00ea12893
gd87-11-13d1t02.flac:82595866e790a8bb647f40b73c83181f
gd87-11-13d1t03.flac:e2b9e29030bde336f64bec6c00da4240
gd87-11-13d1t04.flac:d3297ce55ca2ceb2c8408543a7bbe3dc
gd87-11-13d1t05.flac:30381d01def46710b3fbc10a214d2fb5
gd87-11-13d1t06.flac:705f46b0b4161533c950be4769f7bd4f
gd87-11-13d1t07.flac:d930069770157cdbbeace25d672173a5
gd87-11-13d1t08.flac:55daadd4d4fecd4273aadffe74a6d125
gd87-11-13d1t09.flac:5e2c7fda41148f286dcdbbf29da82b8a
gd87-11-13d1t10.flac:877c5a06e5da09a27319b937cb8854fb
gd87-11-13d2t01.flac:20be2d378a2a9cafbaac97e693e71899
gd87-11-13d2t02.flac:8564214832d00164d8d6d3ae5d55aeb6
gd87-11-13d2t03.flac:7c4a7b687d63ea321662052a19dd9fb9
gd87-11-13d2t04.flac:39ded3c3bdbd98fc3e4c0b2b0514e866
gd87-11-13d2t05.flac:2e2cb26de829236e84350eb675eaa7c2
gd87-11-13d2t06.flac:84eb6b565f37dad6220f5b51f3f98f02
gd87-11-13d2t07.flac:61ce43076a4d2b8891ab7f616227e394
gd87-11-13d2t08.flac:3d0f05a6a797cf6859190d8387aab0af

Comments
Add Comment
Other Sources (comments)
SBD -> Cm -> Cass -> Sony... (0) flac16; Recording... (0)
Date User Comment