Browse Collections Artists Sources   Search Dates

Add Show    List Management    Help


Grateful Dead 10/16/81
Club Melk Weg, Amsterdam, Netherlands
Comments Add Comment    Source Collectors    Add to Collection    Add to Want List    History
Source # 95431 Other Sources
Entered by dr.unclear
Checksums flac-md5 , ffp
Disc Counts 2 / 2
Media Size
Date Circulated
Date Added
10/26/2008
10/24/2008
Source Summary flac16; Sick Bits Vol. 27 - SBD/AUD matrix of 2 previously circulating sources: SBD (shnid=1217) + AUD (shnid=80060). Matrixed by Chris Chappell.  
  Archive
Source Information - Download Text | Download Zip
Grateful Dead
Melkweg
Amsterdam, Netherlands
10-16-81
Sick Bits Vol. 27

Source: Matrix (SBD/AUD mix)
ratio ~ Phi (the Golden Ratio) - 1.618/1 or 62%/38%

SBD: (shnid=1217) via Dan Vinson
Lineage: MCASS>CASS>DAT>CDR>EAC>WAV>SHN
Patch source - FOB:MCASS>CASS>DAT>CDR

AUD: (shnid=80060) via Michel The belgian Deadhead
Source:Senheiser-pro-direction.>New Marantz cass.rec.(looking like

SonyTC-D5>TDK-SA-C90(master tape)

Master cass.>SonyTC-D5M>CDwave>Flac16

Matrixed by Chris Chappell
(SHN/Flac > Vegas 5 > Flac16)
November 11, 2006
[email protected]
___________________________________________

Set 1:
d1t01 - Happy B-day Bob
d1t02 - On The Road Again
d1t03 - Dire Wolf
d1t04 - Monkey And The Engineer
d1t05 - Bird Song
d1t06 - Cassidy
d1t07 - Oh Babe It Ain't No Lie
d1t08 - The Race Is On
d1t09 - Ripple

Set 2:
d2t01 - tuning
d2t02 - Playing In The Band ->
d2t03 - Hully Gully ->
d2t04 - The Wheel ->
d2t05 - Samson & Delilah
d2t06 - Gloria ->
d2t07 - Turn On Your Lovelight ->
d2t08 - Going Down The Road Feelin' Bad ->
d2t09 - Playin' Reprise ->
d2t10 - Black Peter ->  
d2t11 - Sugar Magnolia ->

[no encore]

___________________________________________

OOPS Concert, Bob's 34th b-day

Stats:
last Ain't No Lie 12-6-80 [74]
last Ripple 12-31-80 [66]

final acoustic Ripple - final electric 9-3-88 [459]

only Hully Gully

last Gloria 1-30-68 [1090]

last Lovelight 5-24-72 [581]

Notes:
I've had this matrix in the can for almost two years, and I was waiting
to synch it to the video before releasing it.  There seemed to be some
desire to have just the matrix for now, so here it is. Maybe the video
will surface one day with a matrix or 5.1 as its audio tracks.  The sources
work well together, given the size of the venue, and the fact that the boyz
were playing borrowed instruments. A birthday party in the Milky Way...

Dynamics:
Waves L2 was used for minor limiting (-0.7 threshold), and no EQ or other
dynamic processing was employed.

Pitch:
Set 1 - the SBD is pitched up around 30 cents.  The AUD is pitched up
on average about 15 cents.
Set 2 - the SBD is pitched up around 6 cents until Gloria where it is
pitched up 34 cents for the rest of the source.  The AUD is pitched up
on average about 25 cents.  The SBD patch AUD was pitched up 3 cents.

Synch:
AUD synched to the SBD.
For the AUD patches in the SBD source (first 2:25 of Playin' and 4:53 until
the end of Sugar Mags) I synched the two AUDs for the hell of it, the
sources being different and somewhat complimentary. Tape flip in the AUD
during GDTRFB (4:42 - 5:06) thus SBD only, as well as tunings during the
first set (AUD pauses).

Thanks to Dan Vinson for the SBD, to Michel The belgian Deadhead
for the AUD; and to all others involved in the creation of these 2 sources.

Let it shine!
-Chappy
8-20-08
___________________________________________

SHNTOOL OUTPUT:
    
    length     expanded size   cdr  WAVE problems filename
     1:18.33       13836860    ---   --   ---xx   gd81-10-16d1t01.flac
     3:37.52       38401148    ---   --   ---xx   gd81-10-16d1t02.flac
     4:46.22       50502188    ---   --   ---xx   gd81-10-16d1t03.flac
     2:48.61       29778716    ---   --   ---xx   gd81-10-16d1t04.flac
    10:55.58      115678460    ---   --   ---xx   gd81-10-16d1t05.flac
     5:43.08       60524060    ---   --   ---xx   gd81-10-16d1t06.flac
     5:58.54       63278252    ---   --   ---xx   gd81-10-16d1t07.flac
     3:40.69       38970332    ---   --   ---xx   gd81-10-16d1t08.flac
     4:29.06       47465756    ---   --   ---xx   gd81-10-16d1t09.flac
     0:35.57        6308108    ---   --   ---xx   gd81-10-16d2t01.flac
    11:12.27      118604348    ---   --   ---xx   gd81-10-16d2t02.flac
     3:16.28       34640300    ---   --   ---xx   gd81-10-16d2t03.flac
     6:01.26       63741596    ---   --   ---xx   gd81-10-16d2t04.flac
     8:40.33       91805660    ---   --   ---xx   gd81-10-16d2t05.flac
     7:24.25       78380444    ---   --   ---xx   gd81-10-16d2t06.flac
     6:09.64       65242172    ---   --   ---xx   gd81-10-16d2t07.flac
     5:46.43       61135580    ---   --   ---xx   gd81-10-16d2t08.flac
     3:58.62       42129068    ---   --   ---xx   gd81-10-16d2t09.flac
     9:23.34       99393212    ---   --   ---xx   gd81-10-16d2t10.flac
     9:43.42      102940028    ---   --   ---xx   gd81-10-16d2t11.flac
   115:31.54     1222756288 B (totals for 20 files, 0.6141 overall compression ratio)


FFP:
gd81-10-16d1t01.flac:beb02011f699165a02d4e747975ce107
gd81-10-16d1t02.flac:e69896425cfa00d331bb5a434f38f5a9
gd81-10-16d1t03.flac:e4a8438ac95e2e6f7c69a74ffc3661e2
gd81-10-16d1t04.flac:dd6d7a9b3022e79833a2b74272852fb3
gd81-10-16d1t05.flac:c3b774583b1077eea7d9943000398d76
gd81-10-16d1t06.flac:2709bfb0cc30f93342e96c4cafe42789
gd81-10-16d1t07.flac:88a8d695c68f3133329a900d2c147369
gd81-10-16d1t08.flac:08e80ee1799d6a8a2e908c8deedc1daf
gd81-10-16d1t09.flac:87bb5cc93653ccd2884e471332eb0567
gd81-10-16d2t01.flac:64925048a971ce8e4c8c621efeac4363
gd81-10-16d2t02.flac:4aec03f29a9cf2785e8cf0f9b9f0ccb6
gd81-10-16d2t03.flac:d18360b26c4eec373c83efb3d12d5418
gd81-10-16d2t04.flac:634ce0a36d323fcf9b151093496eeeb8
gd81-10-16d2t05.flac:dab2c3c5dd983d0a8b3bbdbb5a6f5bad
gd81-10-16d2t06.flac:517783267e77fcae2a035c3dadd62c7d
gd81-10-16d2t07.flac:7e0af1efcf67b041d42bfbf53e6fa04b
gd81-10-16d2t08.flac:6db056cb80ed23da8194cd4fbd186523
gd81-10-16d2t09.flac:f180fe6601d7fdeb8cf3161ae6e254cf
gd81-10-16d2t10.flac:338b6e1b5f6f0f99a79e9f6bddc7747b
gd81-10-16d2t11.flac:6678eeb4bfd87cd5a136c097f8027908
Show Checksums
flac-md5
ca90a77fafc77cc7dfb7bba8f2e45f9f *gd81-10-16d1t01.flac
a0e0e371f0c3e50e59f7146d15b0a15a *gd81-10-16d1t02.flac
dc06a3ab20ff621cfed80f057ce9a8f0 *gd81-10-16d1t03.flac
5e92a194b4ed79455b63c129b28bc3f9 *gd81-10-16d1t04.flac
96a832004df323a74aebd50227a7ee49 *gd81-10-16d1t05.flac
b9c15eb73a8c1d9c88203278280d395f *gd81-10-16d1t06.flac
e8deead1e4802ad55be33c3d8f8d8bb2 *gd81-10-16d1t07.flac
a6ac9bcb9fdbef131a60a6caccbc3869 *gd81-10-16d1t08.flac
7ede585a70bebf8cf34f4a7ea04c4f4a *gd81-10-16d1t09.flac
fda4198b09fc1791e6b9753fe2cb7149 *gd81-10-16d2t01.flac
f0bb037b2547f787d9a567ad82ce6944 *gd81-10-16d2t02.flac
555746ffbae1b09d553e99ebdd2d6c3f *gd81-10-16d2t03.flac
335f9cb64b045af55110e15922643676 *gd81-10-16d2t04.flac
8cb9bb8e87affbcc46a5e42714ce1cf2 *gd81-10-16d2t05.flac
672c63ef55743252869db9e8f644085d *gd81-10-16d2t06.flac
85ca20cfd54460f3ec9d59d0d0019b85 *gd81-10-16d2t07.flac
4c757c45945a54f57c913044d0900381 *gd81-10-16d2t08.flac
66749c6d0044a61d67486cb09cfb14cf *gd81-10-16d2t09.flac
1fa0c23dcd6e79a12dd6749118aab6e4 *gd81-10-16d2t10.flac
e1c566fe5bbd7082054ec0411562b037 *gd81-10-16d2t11.flac
ffp
gd81-10-16d1t01.flac:beb02011f699165a02d4e747975ce107
gd81-10-16d1t02.flac:e69896425cfa00d331bb5a434f38f5a9
gd81-10-16d1t03.flac:e4a8438ac95e2e6f7c69a74ffc3661e2
gd81-10-16d1t04.flac:dd6d7a9b3022e79833a2b74272852fb3
gd81-10-16d1t05.flac:c3b774583b1077eea7d9943000398d76
gd81-10-16d1t06.flac:2709bfb0cc30f93342e96c4cafe42789
gd81-10-16d1t07.flac:88a8d695c68f3133329a900d2c147369
gd81-10-16d1t08.flac:08e80ee1799d6a8a2e908c8deedc1daf
gd81-10-16d1t09.flac:87bb5cc93653ccd2884e471332eb0567
gd81-10-16d2t01.flac:64925048a971ce8e4c8c621efeac4363
gd81-10-16d2t02.flac:4aec03f29a9cf2785e8cf0f9b9f0ccb6
gd81-10-16d2t03.flac:d18360b26c4eec373c83efb3d12d5418
gd81-10-16d2t04.flac:634ce0a36d323fcf9b151093496eeeb8
gd81-10-16d2t05.flac:dab2c3c5dd983d0a8b3bbdbb5a6f5bad
gd81-10-16d2t06.flac:517783267e77fcae2a035c3dadd62c7d
gd81-10-16d2t07.flac:7e0af1efcf67b041d42bfbf53e6fa04b
gd81-10-16d2t08.flac:6db056cb80ed23da8194cd4fbd186523
gd81-10-16d2t09.flac:f180fe6601d7fdeb8cf3161ae6e254cf
gd81-10-16d2t10.flac:338b6e1b5f6f0f99a79e9f6bddc7747b
gd81-10-16d2t11.flac:6678eeb4bfd87cd5a136c097f8027908

Comments
Add Comment
Other Sources (comments)
SBD:MCASS> CASS> DAT> CDR,... (1) Source:Senheiser-pro-direct... (0) flac16; Aud master... (1) flac16; Recording... (0) flac16; Matrix by... (0) flac16; Beyer M-160... (1) flac24; AUD: 2x... (0) flac16; AUD: 2x... (0)
Date User Comment